Правила форума

Здесь находятся раздачи, на которых не было полного источника (сида) более месяца.
Вы можете вернуть релиз в соответствующий раздел, для этого напишите нам в специальной теме и встаньте на раздачу.
Новые релизы, повторяющие релизы в архиве, повторами не считаются.
Начать новую темуОтветить на тему  [ 1 сообщение ] 
Сообщения
 Добавлено: 2015-01-18 19:48
DVD Release Group
Аватара пользователя
Стаж: 7 лет 1 месяц
Сообщений: 3549
Спасибок: 247097
Лайков: 1018
Джон Уик

John Wick


Изображение


Год выпуска: 2014
Страна: Китай, Канада, США
Жанр: Боевик, триллер
Продолжительность: 01:41:12
Перевод:
*Профессиональный (полное дублирование) чистый звук
*Любительский (двухголосый)
*Авторский (одноголосый) Есарев
Субтитры: Русские (Forced), английские
Режиссер: Дэвид Лейтч, Чад Стахелски
В ролях: Киану Ривз, Микаэл Нюквист, Элфи Оуэн-Аллен, Уиллем Дефо, Дин Уинтерс, Эдрианн Палики, Омер Барнеа, Тоби Мур, Дэниэл Бернхард, Бриджет Мойнэхэн
Описание: Джон Уик — бывший наемный убийца — ведет размеренную жизнь, когда преступник крадет его любимый Mustang 1969 года и попутно убивает собаку Дейзи, единственное живое напоминание об умершей жене. Жажда мести пробуждает в нем, казалось, утерянную хватку…
Изображение
Качество: WEB-DL 1080p
Формат: MKV
Видео кодек: H.264
Аудио кодек: AC3
Видео: 1912x792 23.98fps 3671kbps
Аудио:
Аудио Дубляж: 48kHz 2ch 128kbps
Аудио Авторский: 48kHz 6ch 384kbps
Аудио Двухголосый: 48kHz 6ch 384kbps
Аудио Eng: 48kHz 6ch 384kbps
"MediaInfo"
Формат : Matroska
Версия формата : Version 2
Размер файла : 3,57 Гбайт
Продолжительность : 1 ч. 41 м.
Общий поток : 5047 Кбит/сек
Название фильма : John.Wick.2014.D.WEB-DL.1080p.ELEKTRI4KA
Дата кодирования : UTC 2015-01-18 15:23:05
Программа кодирования : mkvmerge v5.0.1 ('Es ist Sommer') built on Nov 6 2011 16:23:40
Библиотека кодирования : libebml v1.2.2 + libmatroska v1.3.0

Видео
Идентификатор : 1
Формат : AVC
Формат/Информация : Advanced Video Codec
Профиль формата : High@L4.0
Параметр CABAC формата : Да
Параметр ReFrames формата : 5 кадров
Режим смешивания : Header stripping
Идентификатор кодека : V_MPEG4/ISO/AVC
Продолжительность : 1 ч. 41 м.
Битрейт : 3667 Кбит/сек
Ширина : 1912 пикселей
Высота : 792 пикселя
Соотношение сторон : 2,40:1
Режим частоты кадров : Постоянный
Частота кадров : 23,976 кадра/сек
Цветовое пространство : YUV
Субдискретизация насыщенности : 4:2:0
Битовая глубина : 8 бит
Тип развёртки : Прогрессивная
Бит/(Пиксели*Кадры) : 0.101
Размер потока : 2,59 Гбайт (73%)
Заголовок : John.Wick.2014.D.WEB-DL.1080p.ELEKTRI4KA
Язык : English
Default : Да
Forced : Нет
Основные цвета : BT.709
Характеристики трансфера : BT.709
Коэффициенты матрицы : BT.709

Аудио #1
Идентификатор : 2
Формат : AC-3
Формат/Информация : Audio Coding 3
Расширение режима : CM (complete main)
Параметр Endianness формата : Big
Режим смешивания : Header stripping
Идентификатор кодека : A_AC3
Продолжительность : 1 ч. 41 м.
Вид битрейта : Постоянный
Битрейт : 128 Кбит/сек
Каналы : 2 канала
Расположение каналов : Front: L R
Частота : 48,0 КГц
Битовая глубина : 16 бит
Метод сжатия : С потерями
Размер потока : 92,7 Мбайт (3%)
Заголовок : John.Wick.2014.D.WEB-DL.1080p
Язык : Russian
Default : Нет
Forced : Нет

Аудио #2
Идентификатор : 3
Формат : AC-3
Формат/Информация : Audio Coding 3
Расширение режима : CM (complete main)
Параметр Endianness формата : Big
Режим смешивания : Header stripping
Идентификатор кодека : A_AC3
Продолжительность : 1 ч. 41 м.
Вид битрейта : Постоянный
Битрейт : 384 Кбит/сек
Каналы : 6 каналов
Расположение каналов : Front: L C R, Side: L R, LFE
Частота : 48,0 КГц
Битовая глубина : 16 бит
Метод сжатия : С потерями
Размер потока : 278 Мбайт (8%)
Заголовок : L2 - John.Wick.2014.D.WEB-DL.1080p.
Язык : Russian
Default : Да
Forced : Нет

Аудио #3
Идентификатор : 4
Формат : AC-3
Формат/Информация : Audio Coding 3
Расширение режима : CM (complete main)
Параметр Endianness формата : Big
Режим смешивания : Header stripping
Идентификатор кодека : A_AC3
Продолжительность : 1 ч. 41 м.
Вид битрейта : Постоянный
Битрейт : 384 Кбит/сек
Каналы : 6 каналов
Расположение каналов : Front: L C R, Side: L R, LFE
Частота : 48,0 КГц
Битовая глубина : 16 бит
Метод сжатия : С потерями
Размер потока : 278 Мбайт (8%)
Заголовок : P1 - John.Wick.2014.D.WEB-DL.1080p.
Язык : Russian
Default : Нет
Forced : Нет

Аудио #4
Идентификатор : 5
Формат : AC-3
Формат/Информация : Audio Coding 3
Расширение режима : CM (complete main)
Параметр Endianness формата : Big
Режим смешивания : Header stripping
Идентификатор кодека : A_AC3
Продолжительность : 1 ч. 41 м.
Вид битрейта : Постоянный
Битрейт : 384 Кбит/сек
Каналы : 6 каналов
Расположение каналов : Front: L C R, Side: L R, LFE
Частота : 48,0 КГц
Битовая глубина : 16 бит
Метод сжатия : С потерями
Размер потока : 278 Мбайт (8%)
Заголовок : John.Wick.2014.D.WEB-DL.1080p.
Язык : English
Default : Нет
Forced : Нет

Текст #1
Идентификатор : 6
Формат : UTF-8
Идентификатор кодека : S_TEXT/UTF8
Идентификатор кодека/Информация : UTF-8 Plain Text
Заголовок : На невнятную русскую речь
Язык : Russian
Default : Нет
Forced : Да

Текст #2
Идентификатор : 7
Формат : UTF-8
Идентификатор кодека : S_TEXT/UTF8
Идентификатор кодека/Информация : UTF-8 Plain Text
Язык : English
Default : Да
Forced : Нет

Меню
00:00:00.000 : en:Chapter 1
00:04:57.000 : en:Chapter 2
00:12:22.000 : en:Chapter 3
00:17:07.000 : en:Chapter 4
00:26:25.000 : en:Chapter 5
00:32:40.000 : en:Chapter 6
00:36:24.000 : en:Chapter 7
00:42:16.000 : en:Chapter 8
00:45:33.000 : en:Chapter 9
00:55:02.000 : en:Chapter 10
00:59:27.000 : en:Chapter 11
01:06:13.000 : en:Chapter 12
01:14:17.000 : en:Chapter 13
01:19:13.000 : en:Chapter 14
01:27:29.000 : en:Chapter 15
01:32:24.000 : en:Chapter 16
Свернуть

"Скриншоты"
Изображение
Изображение
Изображение
Изображение
Изображение
Изображение
Свернуть
Не в сети
Профиль  
Начать новую темуОтветить на тему  [ 1 сообщение ] 
Вы не можете начинать темы
Вы не можете отвечать на сообщения
Вы не можете редактировать свои сообщения
Вы не можете удалять свои сообщения