Правила форума

Здесь находятся раздачи, на которых не было полного источника (сида) более месяца.
Вы можете вернуть релиз в соответствующий раздел, для этого напишите нам в специальной теме и встаньте на раздачу.
Новые релизы, повторяющие релизы в архиве, повторами не считаются.
Начать новую темуОтветить на тему  [ Сообщений: 10 ] 
Сообщения
 Добавлено: 2015-01-13 11:53
DVD Release Group
Аватара пользователя
Стаж: 7 лет 1 месяц
Сообщений: 3542
Спасибок: 246650
Лайков: 1016
Джон Уик

John Wick


Изображение


Год выпуска: 2014
Страна: Китай, Канада, США
Жанр: Боевик, триллер
Продолжительность: 01:41:12
Перевод: Профессиональный (полное дублирование) чистый звук
Режиссер: Дэвид Лейтч, Чад Стахелски
В ролях: Киану Ривз, Микаэл Нюквист, Элфи Оуэн-Аллен, Уиллем Дефо, Дин Уинтерс, Эдрианн Палики, Омер Барнеа, Тоби Мур, Дэниэл Бернхард, Бриджет Мойнэхэн
Описание: Джон Уик — бывший наемный убийца — ведет размеренную жизнь, когда преступник крадет его любимый Mustang 1969 года и попутно убивает собаку Дейзи, единственное живое напоминание об умершей жене. Жажда мести пробуждает в нем, казалось, утерянную хватку…
Изображение
Sample:
http://sendfile.su/1075976
Качество: BDRip 720p
Формат: MKV
Видео кодек: H.264
Аудио кодек: AC3
Видео: 1280x536 23.98fps 5537kbps
Аудио:
Аудио Rus: 48kHz 2ch 192kbps
Аудио Eng: 48kHz 6ch 640kbps
"MediaInfo"
Format : Matroska

Format version : Version 4 / Version 2

File size : 4.50 GiB

Duration : 1h 41mn

Overall bit rate : 6 367 Kbps

Encoded date : UTC 2015-01-21 09:01:30

Writing application : mkvmerge v7.5.0 ('Glass Culture') 64bit built on Jan 4 2015 16:48:44

Writing library : libebml v1.3.1 + libmatroska v1.4.2

DURATION : 01:34:08.082000000

NUMBER_OF_FRAMES : 618

NUMBER_OF_BYTES : 27843

_STATISTICS_WRITING_APP : mkvmerge v7.5.0 ('Glass Culture') 64bit built on Jan 4 2015 16:48:44

_STATISTICS_WRITING_DATE_UT : 2015-01-21 09:01:30

_STATISTICS_TAGS : BPS DURATION NUMBER_OF_FRAMES NUMBER_OF_BYTES



Video

ID : 1

Format : AVC

Format/Info : Advanced Video Codec

Format profile : High@L4.1

Format settings, CABAC : Yes

Format settings, ReFrames : 5 frames

Codec ID : V_MPEG4/ISO/AVC

Duration : 1h 41mn

Bit rate : 5 537 Kbps

Width : 1 280 pixels

Height : 536 pixels

Display aspect ratio : 2.40:1

Frame rate mode : Constant

Frame rate : 23.976 fps

Color space : YUV

Chroma subsampling : 4:2:0

Bit depth : 8 bits

Scan type : Progressive

Bits/(Pixel*Frame) : 0.337

Stream size : 3.82 GiB (85%)

Writing library : x264 core 144 r2525 40bb568

Encoding settings : cabac=1 / ref=5 / deblock=1:0:0 / analyse=0x3:0x133 / me=umh / subme=7 / psy=1 / psy_rd=1.00:0.00 / mixed_ref=1 / me_range=16 / chroma_me=1 / trellis=1 / 8x8dct=1 / cqm=0 / deadzone=21,11 / fast_pskip=0 / chroma_qp_offset=-2 / threads=60 / lookahead_threads=4 / sliced_threads=0 / nr=0 / decimate=1 / interlaced=0 / bluray_compat=0 / constrained_intra=0 / bframes=3 / b_pyramid=2 / b_adapt=1 / b_bias=0 / direct=1 / weightb=1 / open_gop=0 / weightp=2 / keyint=250 / keyint_min=23 / scenecut=40 / intra_refresh=0 / rc_lookahead=40 / rc=2pass / mbtree=1 / bitrate=5537 / ratetol=1.0 / qcomp=0.60 / qpmin=0 / qpmax=69 / qpstep=4 / cplxblur=20.0 / qblur=0.5 / ip_ratio=1.40 / aq=1:1.00

Language : English

Default : Yes

Forced : No

DURATION : 01:41:12.910000000

NUMBER_OF_FRAMES : 145604

NUMBER_OF_BYTES : 4201017384

_STATISTICS_WRITING_APP : mkvmerge v7.5.0 ('Glass Culture') 64bit built on Jan 4 2015 16:48:44

_STATISTICS_WRITING_DATE_UT : 2015-01-21 09:01:30

_STATISTICS_TAGS : BPS DURATION NUMBER_OF_FRAMES NUMBER_OF_BYTES



Audio #1

ID : 2

Format : AC-3

Format/Info : Audio Coding 3

Mode extension : CM (complete main)

Format settings, Endianness : Big

Codec ID : A_AC3

Duration : 1h 41mn

Bit rate mode : Constant

Bit rate : 192 Kbps

Channel(s) : 2 channels

Channel positions : Front: L R

Sampling rate : 48.0 KHz

Bit depth : 16 bits

Compression mode : Lossy

Delay relative to video : 1s 200ms

Stream size : 139 MiB (3%)

Language : Russian

Default : Yes

Forced : No



Audio #2

ID : 3

Format : AC-3

Format/Info : Audio Coding 3

Mode extension : CM (complete main)

Format settings, Endianness : Big

Codec ID : A_AC3

Duration : 1h 41mn

Bit rate mode : Constant

Bit rate : 640 Kbps

Channel(s) : 6 channels

Channel positions : Front: L C R, Side: L R, LFE

Sampling rate : 48.0 KHz

Bit depth : 16 bits

Compression mode : Lossy

Stream size : 463 MiB (10%)

Language : English

Default : No

Forced : No



Text

ID : 4

Format : UTF-8

Codec ID : S_TEXT/UTF8

Codec ID/Info : UTF-8 Plain Text

Language : Russian

Default : No

Forced : No



Menu

00:00:00.000 : en:00:00:00.000

00:04:57.506 : en:00:04:57.506

00:12:21.866 : en:00:12:21.866

00:17:07.735 : en:00:17:07.735

00:26:25.167 : en:00:26:25.167

00:32:40.250 : en:00:32:40.250

00:36:24.599 : en:00:36:24.599

00:42:16.033 : en:00:42:16.033

00:45:33.272 : en:00:45:33.272

00:55:02.507 : en:00:55:02.507

00:59:27.564 : en:00:59:27.564

01:06:13.428 : en:01:06:13.428

01:14:15.910 : en:01:14:15.910

01:19:13.040 : en:01:19:13.040

01:27:29.786 : en:01:27:29.786

01:32:24.789 : en:01:32:24.789
Свернуть

"Скриншоты"
Изображение
Изображение
Изображение
Свернуть


Последний раз редактировалось rastor 2015-01-21 12:20, всего редактировалось 4 раз(а).
Не в сети
Профиль  
 Добавлено: 2015-01-14 11:36 (спустя 23 часа)
Аватара пользователя
Стаж: 8 лет 2 месяца
Сообщений: 164
Спасибок: 29
Лайков: 27
Скачан 27 раз. Отпишитесь, как звук?
Не в сети
Профиль  
 Добавлено: 2015-01-14 15:11 (спустя 3 часа)
Аватара пользователя
Стаж: 7 лет 4 месяца
Сообщений: 32
Лайков: 5
kseniyamargera
Звук нормально, иногда слышны кашли, но вполне слушабельно, могло быть и хуже
Сам фильм мне не понравился
_________________
ИзображениеИзображение
Не в сети
Профиль  
 Добавлено: 2015-01-14 15:33 (спустя 22 минуты)
Аватара пользователя
Стаж: 8 лет 2 месяца
Сообщений: 164
Спасибок: 29
Лайков: 27
Что то по типу viewtopic.php?f=1750&t=538792 вот этого?
Не в сети
Профиль  
 Добавлено: 2015-01-14 18:59 (спустя 3 часа)
Аватара пользователя
Стаж: 7 лет 4 месяца
Сообщений: 32
Лайков: 5
kseniyamargera
Да, похоже, оба фильма ерунда какая-то. И там и там русская мафия или что-то типа того, суперкрутой чувак, который мстит и убивает нехороших парней подряд
Правда у Джона Уика хоть мотив какой-никакой, а был. В уравнителе вообще не понятно что и зачем. Ну и в Уике актёры поименитее
_________________
ИзображениеИзображение
Не в сети
Профиль  
 Добавлено: 2015-01-15 16:16 (спустя 21 час)
Аватара пользователя
Стаж: 1 год 11 месяцев
Сообщений: 16
Лайков: 3
шикордятина))) фильм реально крутой! советую всем!
Не в сети
Профиль  
 Добавлено: 2015-01-15 17:23 (спустя 1 час 6 минут)
Top-releaser
Аватара пользователя
Стаж: 6 лет 7 месяцев
Сообщений: 2078
Спасибок: 3229
Лайков: 9
Известно когда будет хороший звук?
В сети
Профиль  
 Добавлено: 2015-01-16 23:26 (спустя 1 день 6 часов)
Аватара пользователя
Стаж: 5 лет 9 месяцев
Возраст: 38
Сообщений: 189
Лайков: 28
Шлак, смотреть не советую
Не в сети
Профиль  
 Добавлено: 2015-01-17 19:42 (спустя 20 часов)
Аватара пользователя
Стаж: 1 год 11 месяцев
Сообщений: 16
Лайков: 3
шедевр! уже 2 раза пересмотрел!
Не в сети
Профиль  
 Добавлено: 2015-01-18 18:46 (спустя 23 часа)
DVD Release Group
Аватара пользователя
Стаж: 7 лет 1 месяц
Сообщений: 3542
Спасибок: 246650
Лайков: 1016
Торрент-файл обновлен на BDRip 720p (чистый звук).
Не в сети
Профиль  
Начать новую темуОтветить на тему  [ Сообщений: 10 ] 
Вы не можете начинать темы
Вы не можете отвечать на сообщения
Вы не можете редактировать свои сообщения
Вы не можете удалять свои сообщения