Правила форума

Здесь находятся раздачи, на которых не было полного источника (сида) более месяца.
Вы можете вернуть релиз в соответствующий раздел, для этого напишите нам в специальной теме и встаньте на раздачу.
Новые релизы, повторяющие релизы в архиве, повторами не считаются.
Начать новую темуОтветить на тему  [ 1 сообщение ] 
Сообщения
 Добавлено: 2012-10-17 18:10
Top-releaser
Аватара пользователя
Стаж: 6 лет 7 месяцев
Сообщений: 2078
Спасибок: 3229
Лайков: 9
Изображение

Джуманджи
Jumanji


Год выпуска: 1995
Страна: США
Слоган: «Эта игра заставит Вас поверить в чудеса»
Жанр: фэнтези, триллер, приключения, семейный
Продолжительность: 01:44:06
Перевод: Профессиональный (полное дублирование)
Режиссер: Джо Джонстон
Сценарий: Крис Ван Оллсбёрг, Грег Тейлор, Джим Стрэйн, Джонатан Хенсли
Продюсер: Роберт В. Корт, Тед Филд, Ларри Дж. Франко, Скотт Крупф, Уильям Тейтлер
Оператор: Томас Экермен
Композитор: Джеймс Хорнер
В ролях: Робин Уильямс, Бонни Хант, Кирстен Данст, Брэдли Пирс, Биби Ньювирт, Джонатан Хайд, Дэвид Алан Грир, Патришия Кларксон, Адам Хэнн-Берд, Лаура Белл Банди, Джеймс Хэнди, Джиллиан Барбер
Бюджет: $65 000 000
Сборы в США: $100 475 249
Сборы в мире: $262 797 249
Мировая премьера: 15 декабря 1995
Описание: Случайно обнаружив настольную игру со странным названием «Джуманджи» Алан Пэрриш, не зная о ее сверхъестественных свойствах, на глазах изумленной подружки переносится в джунгли.
Долгие годы он находится в потустороннем мире, до тех пор, пока двое ни о чем не подозревающих подростков не находят игру и не снимают волшебные чары, освобождая Алана из многолетнего плена.
Теперь им предстоит решить нелегкую задачу - победить могущественную силу игры, пройти немыслимые препятствия и одержать победу над силами Магии!


Изображение User Rating: 7.827 (49 680)
Изображение User Rating: 6.60 (96 087)
MPAA: PG - Рекомендуется присутствие родителей
Качество: BDRip, 720p
Формат: Matroska
Видео: AVC; 1280x688 (1.860); 4322 Kbps; 23,976 fps; 0,205 bit/pixel
Аудио №1: Russian; AC3; 448 Kbps; CBR; 6 ch - Дубляж
Аудио №2: Russian; DTS; 754 Kbps; CBR; 6 ch; 24 bit - Многоголосый Superbit
Аудио №3: Russian; AC3; 192 Kbps; CBR; 2 ch - Многоголосый ВидеоСервис
Аудио №4: Russian; AC3; 192 Kbps; CBR; 2 ch - Авторский одноголосый Визгунов
Аудио №5: Russian; AC3; 192 Kbps; CBR; 2 ch - Авторский одноголосый Гаврилов (ранний)
Аудио №6: Russian; DTS; 754 Kbps; CBR; 6 ch; 24 bit - Авторский одноголосый Гаврилов (поздний)
Аудио №7: Russian; AC3; 448 Kbps; CBR; 6 ch - Авторский одноголосый Живов
Аудио №8: English; DTS; 1509 Kbps; CBR; 6 ch; 24 bit - Оригинальная дорожка
Субтитры: Russian

MediaInfo
Общее
Уникальный идентификатор : 188514983888276107639192486948596461881 (0x8DD2AA4D67C05FA1A2D071C51679B139)
Полное имя : Z:\WWW\TR-Downloads\Jumanji.720p[R.G.Daredevil].mkv
Формат : Matroska
Версия формата : Version 2
Размер файла : 6,54 Гбайт
Продолжительность : 1 ч. 44 м.
Общий поток : 8992 Кбит/сек
Дата кодирования : UTC 2011-06-18 20:48:23
Программа кодирования : mkvmerge v2.9.8 ('C'est le bon') built on Aug 13 2009 12:49:06
Библиотека кодирования : libebml v0.7.7 + libmatroska v0.8.1

Видео
Идентификатор : 1
Формат : AVC
Формат/Информация : Advanced Video Codec
Профиль формата : High@L4.1
Параметр CABAC формата : Да
Параметр ReFrames формата : 5 кадров
Идентификатор кодека : V_MPEG4/ISO/AVC
Продолжительность : 1 ч. 44 м.
Битрейт : 4500 Кбит/сек
Ширина : 1280 пикселей
Высота : 688 пикселей
Соотношение сторон : 1,85:1
Частота кадров : 23,976 кадра/сек
Цветовое пространство : YUV
Субдискретизация насыщенности : 4:2:0
Битовая глубина : 8 бит
Тип развёртки : Прогрессивная
Бит/(Пиксели*Кадры) : 0.213
Размер потока : 3,14 Гбайт (48%)
Библиотека кодирования : x264 core 115 r2008 4c552d8
Настройки программы : cabac=1 / ref=5 / deblock=1:0:0 / analyse=0x3:0x113 / me=umh / subme=8 / psy=1 / psy_rd=1.00:0.00 / mixed_ref=1 / me_range=16 / chroma_me=1 / trellis=1 / 8x8dct=1 / cqm=0 / deadzone=21,11 / fast_pskip=1 / chroma_qp_offset=-2 / threads=12 / sliced_threads=0 / nr=0 / decimate=1 / interlaced=0 / bluray_compat=0 / constrained_intra=0 / bframes=3 / b_pyramid=2 / b_adapt=2 / b_bias=0 / direct=3 / weightb=1 / open_gop=0 / weightp=2 / keyint=240 / keyint_min=24 / scenecut=40 / intra_refresh=0 / rc_lookahead=50 / rc=2pass / mbtree=1 / bitrate=4500 / ratetol=1.0 / qcomp=0.60 / qpmin=0 / qpmax=69 / qpstep=4 / cplxblur=20.0 / qblur=0.5 / ip_ratio=1.40 / aq=1:1.00
Язык : English
Default : Нет
Forced : Нет

Аудио #1
Идентификатор : 2
Формат : AC-3
Формат/Информация : Audio Coding 3
Расширение режима : CM (complete main)
Параметр Endianness формата : Big
Идентификатор кодека : A_AC3
Продолжительность : 1 ч. 44 м.
Вид битрейта : Постоянный
Битрейт : 448 Кбит/сек
Каналы : 6 каналов
Расположение каналов : Front: L C R, Side: L R, LFE
Частота : 48,0 КГц
Битовая глубина : 16 бит
Метод сжатия : С потерями
Задержка видео : 975 мс.
Размер потока : 334 Мбайт (5%)
Заголовок : Дубляж (DD 5.1 448 kbps)
Язык : Russian
Default : Да
Forced : Нет

Аудио #2
Идентификатор : 3
Формат : DTS
Формат/Информация : Digital Theater Systems
Идентификатор кодека : A_DTS
Продолжительность : 1 ч. 44 м.
Вид битрейта : Постоянный
Битрейт : 755 Кбит/сек
Каналы : 6 каналов
Расположение каналов : Front: L C R, Side: L R, LFE
Частота : 48,0 КГц
Битовая глубина : 24 бит
Метод сжатия : С потерями
Задержка видео : 975 мс.
Размер потока : 562 Мбайт (8%)
Заголовок : Многоголосый (Superbit) (DTS 5.1 768 kbps)
Язык : Russian
Default : Нет
Forced : Нет

Аудио #3
Идентификатор : 4
Формат : AC-3
Формат/Информация : Audio Coding 3
Расширение режима : CM (complete main)
Параметр Endianness формата : Big
Идентификатор кодека : A_AC3
Продолжительность : 1 ч. 44 м.
Вид битрейта : Постоянный
Битрейт : 192 Кбит/сек
Каналы : 2 канала
Расположение каналов : Front: L R
Частота : 48,0 КГц
Битовая глубина : 16 бит
Метод сжатия : С потерями
Задержка видео : 975 мс.
Размер потока : 143 Мбайт (2%)
Заголовок : Многоголосый (ВидеоСервис) (DD 2.0 192 kbps)
Язык : Russian
Default : Нет
Forced : Нет

Аудио #4
Идентификатор : 5
Формат : AC-3
Формат/Информация : Audio Coding 3
Расширение режима : CM (complete main)
Параметр Endianness формата : Big
Идентификатор кодека : A_AC3
Продолжительность : 1 ч. 44 м.
Вид битрейта : Постоянный
Битрейт : 192 Кбит/сек
Каналы : 2 канала
Расположение каналов : Front: L R
Частота : 48,0 КГц
Битовая глубина : 16 бит
Метод сжатия : С потерями
Задержка видео : 975 мс.
Размер потока : 143 Мбайт (2%)
Заголовок : Визгунов (DD 2.0 192 kbps)
Язык : Russian
Default : Нет
Forced : Нет

Аудио #5
Идентификатор : 6
Формат : AC-3
Формат/Информация : Audio Coding 3
Расширение режима : CM (complete main)
Параметр Endianness формата : Big
Идентификатор кодека : A_AC3
Продолжительность : 1 ч. 44 м.
Вид битрейта : Постоянный
Битрейт : 192 Кбит/сек
Каналы : 2 канала
Расположение каналов : Front: L R
Частота : 48,0 КГц
Битовая глубина : 16 бит
Метод сжатия : С потерями
Задержка видео : 975 мс.
Размер потока : 143 Мбайт (2%)
Заголовок : Гаврилов (ранний) (DD 2.0 192 kbps)
Язык : Russian
Default : Нет
Forced : Нет

Аудио #6
Идентификатор : 7
Формат : DTS
Формат/Информация : Digital Theater Systems
Идентификатор кодека : A_DTS
Продолжительность : 1 ч. 44 м.
Вид битрейта : Постоянный
Битрейт : 755 Кбит/сек
Каналы : 6 каналов
Расположение каналов : Front: L C R, Side: L R, LFE
Частота : 48,0 КГц
Битовая глубина : 24 бит
Метод сжатия : С потерями
Задержка видео : 975 мс.
Размер потока : 562 Мбайт (8%)
Заголовок : Гаврилов (поздний) (DTS 5.1 768 kbps)
Язык : Russian
Default : Нет
Forced : Нет

Аудио #7
Идентификатор : 8
Формат : AC-3
Формат/Информация : Audio Coding 3
Расширение режима : CM (complete main)
Параметр Endianness формата : Big
Идентификатор кодека : A_AC3
Продолжительность : 1 ч. 44 м.
Вид битрейта : Постоянный
Битрейт : 448 Кбит/сек
Каналы : 6 каналов
Расположение каналов : Front: L C R, Side: L R, LFE
Частота : 48,0 КГц
Битовая глубина : 16 бит
Метод сжатия : С потерями
Задержка видео : 975 мс.
Размер потока : 334 Мбайт (5%)
Заголовок : Живов (DD 5.1 448 kbps)
Язык : Russian
Default : Нет
Forced : Нет

Аудио #8
Идентификатор : 9
Формат : DTS
Формат/Информация : Digital Theater Systems
Идентификатор кодека : A_DTS
Продолжительность : 1 ч. 44 м.
Вид битрейта : Постоянный
Битрейт : 1510 Кбит/сек
Каналы : 6 каналов
Расположение каналов : Front: L C R, Side: L R, LFE
Частота : 48,0 КГц
Битовая глубина : 24 бит
Метод сжатия : С потерями
Размер потока : 1,10 Гбайт (17%)
Заголовок : English (DTS 5.1 1510 kbps)
Язык : English
Default : Нет
Forced : Нет

Текст
Идентификатор : 10
Формат : UTF-8
Идентификатор кодека : S_TEXT/UTF8
Идентификатор кодека/Информация : UTF-8 Plain Text
Язык : Russian
Default : Да
Forced : Нет
Свернуть
Скриншоты

Изображение
Изображение
Изображение
Изображение
Изображение
Свернуть
Не в сети
Профиль  
Начать новую темуОтветить на тему  [ 1 сообщение ] 
Вы не можете начинать темы
Вы не можете отвечать на сообщения
Вы не можете редактировать свои сообщения
Вы не можете удалять свои сообщения