Правила форума

Здесь находятся раздачи, на которых не было полного источника (сида) более месяца.
Вы можете вернуть релиз в соответствующий раздел, для этого напишите нам в специальной теме и встаньте на раздачу.
Новые релизы, повторяющие релизы в архиве, повторами не считаются.
Начать новую темуОтветить на тему  [ Сообщений: 2 ] 
Сообщения
 Добавлено: 2012-08-18 13:22
Книголюб
Аватара пользователя
Стаж: 7 лет 2 месяца
Сообщений: 2823
Спасибок: 48823
Лайков: 73
Джунгли зовут! В поисках Марсупилами
Sur la piste du Marsupilami

Изображение


Год выпуска: 2012
Страна: Франция, Бельгия
Жанр: комедия, приключения, семейный
Продолжительность: 01:44:30
Перевод: Профессиональный (дубляж)Звук с CAMRip

Режиссёр: Ален Шаба
В ролях: Жамель Деббуз, Ален Шаба, Фред Тесто, Ламбер Вильсон, Жеральдин Накаш, Лия Кебеде, Патрик Тимсит, Жак Вебер, Айсса Майга, Далип Синх
Описание: Cпасти карьеру некогда знаменитого телеведущего Дэна Джеральдо может лишь одно — сенсация. В поисках жареных фактов журналист отправляется в таинственную страну Паломбию. С помощью неутомимого местного авантюриста Паблито он выходит на след самого загадочного существа на Земле — рыжего и пушистого, сумчатого и хвостатого зверя Марсупилами. Обаятельнейшее животное каким-то непостижимым образом связано с тайной вечной молодости, и на него объявлена настоящая охота. Путешественникам придется спасти Марсупилами от безумных ученых, грозных военных, алчных браконьеров и прочих напастей, которые таят джунгли.
Мировая премьера: 02.08.2012
Премьера в России: 2 августа 2012, «Вольга»
Бюджет: €40 000 000
Изображение 6.338 540

Качество: BDRip 720p Звук с CAMRip
Формат: DVD Video
Видео кодек: MPEG2
Аудио кодек: AC3 (Dolby Digital)
Видео: 1280x536 pix; ~4477 kbps; 24.000 fps; 0.272 bit/pixel
Аудио #1: Русский: 48 kHz, MP3, 2 channels, ~128 Kbps
Аудио #2: Французский: 48 kHz, DTS, 6 channels, ~1510 Kbps
MediaInfo
General
Unique ID : 181014180813627413916941861647055738562 (0x882E10288D38D56E89662237B94256C2)
Complete name : K:\Torrent\Djungli.zovut..mkv
Format : Matroska
Format version : Version 2
File size : 4.47 GiB
Duration : 1h 44mn
Overall bit rate : 6 116 Kbps
Encoded date : UTC 2012-08-17 19:24:52
Writing application : mkvmerge v3.4.0 ('Rapunzel') сборка от May 15 2010 09:38:20
Writing library : libebml v0.8.0 + libmatroska v0.9.0

Video
ID : 1
Format : AVC
Format/Info : Advanced Video Codec
Format profile : High@L4.1
Format settings, CABAC : Yes
Format settings, ReFrames : 5 frames
Codec ID : V_MPEG4/ISO/AVC
Duration : 1h 44mn
Bit rate : 4 477 Kbps
Width : 1 280 pixels
Height : 536 pixels
Display aspect ratio : 2.40:1
Frame rate : 24.000 fps
Color space : YUV
Chroma subsampling : 4:2:0
Bit depth : 8 bits
Scan type : Progressive
Bits/(Pixel*Frame) : 0.272
Stream size : 3.18 GiB (71%)
Writing library : x264 core 125 r2208 d9d2288
Encoding settings : cabac=1 / ref=5 / deblock=1:0:0 / analyse=0x3:0x113 / me=umh / subme=8 / psy=1 / psy_rd=1.00:0.00 / mixed_ref=1 / me_range=16 / chroma_me=1 / trellis=1 / 8x8dct=1 / cqm=0 / deadzone=21,11 / fast_pskip=1 / chroma_qp_offset=-2 / threads=12 / lookahead_threads=2 / sliced_threads=0 / nr=0 / decimate=1 / interlaced=0 / bluray_compat=0 / constrained_intra=0 / bframes=3 / b_pyramid=2 / b_adapt=2 / b_bias=0 / direct=3 / weightb=1 / open_gop=0 / weightp=2 / keyint=240 / keyint_min=24 / scenecut=40 / intra_refresh=0 / rc_lookahead=50 / rc=2pass / mbtree=1 / bitrate=4477 / ratetol=1.0 / qcomp=0.60 / qpmin=0 / qpmax=69 / qpstep=4 / cplxblur=20.0 / qblur=0.5 / ip_ratio=1.40 / aq=1:1.00
Language : English
Default : No
Forced : No

Audio #1
ID : 2
Format : MPEG Audio
Format version : Version 1
Format profile : Layer 3
Mode : Joint stereo
Mode extension : MS Stereo
Codec ID : A_MPEG/L3
Codec ID/Hint : MP3
Duration : 1h 44mn
Bit rate mode : Constant
Bit rate : 128 Kbps
Channel(s) : 2 channels
Sampling rate : 48.0 KHz
Compression mode : Lossy
Delay relative to video : 504ms
Stream size : 95.7 MiB (2%)
Writing library : LAME3.90.3
Default : Yes
Forced : No

Audio #2
ID : 3
Format : DTS
Format/Info : Digital Theater Systems
Codec ID : A_DTS
Duration : 1h 44mn
Bit rate mode : Constant
Bit rate : 1 510 Kbps
Channel(s) : 6 channels
Channel positions : Front: L C R, Side: L R, LFE
Sampling rate : 48.0 KHz
Bit depth : 24 bits
Compression mode : Lossy
Delay relative to video : 11ms
Stream size : 1.10 GiB (25%)
Default : No
Forced : No


Свернуть

Скриншоты
Изображение
Изображение
Изображение
Изображение
Свернуть
Не в сети
Профиль  
 Добавлено: 2012-08-20 15:46 (спустя 2 дня 2 часа)
Аватара пользователя
Стаж: 6 лет 5 месяцев
Сообщений: 19941
Спасибок: 721
Лайков: 459
Прохождение с карьерой или как обычно? :du_ma_et:
_________________
It was I'am ... :jn_pu_sk:
Медали и Ордена
ИзображениеИзображение
Свернуть
Не в сети
Профиль  
Начать новую темуОтветить на тему  [ Сообщений: 2 ] 
Вы не можете начинать темы
Вы не можете отвечать на сообщения
Вы не можете редактировать свои сообщения
Вы не можете удалять свои сообщения