Правила форума

Здесь находятся раздачи, на которых не было полного источника (сида) более месяца.
Вы можете вернуть релиз в соответствующий раздел, для этого напишите нам в специальной теме и встаньте на раздачу.
Новые релизы, повторяющие релизы в архиве, повторами не считаются.
Начать новую темуОтветить на тему  [ 1 сообщение ] 
Сообщения
 Добавлено: 2011-04-30 18:29
Инквизитор
Аватара пользователя
Стаж: 8 лет 9 месяцев
Сообщений: 3753
Спасибок: 28361
Лайков: 9
Изображение

Долгая помолвка / Un long dimanche de fianailles


«Never let go»

Год выпуска: 2004
Страна: США, Франция
Жанр: драма, мелодрама, детектив, военный
Продолжительность: 02:13:10
Перевод: Профессиональный (полное дублирование)
Режиссер: Жан-Пьер Жёне
Сценарий: Себастьян Жапризо, Жан-Пьер Жёне, Гийом Лоран
Продюсер: Жан-Пьер Жёне, Френсис Бьеспфлуг, Билл Гербер
Оператор: Брюно Дельбоннель
Композитор: Анджело Бадаламенти
В ролях: Одри Тоту Гаспар Улье, Доминик Пиньон, Марион Котийяр, Джоди Фостер , Шанталь Нойвирт, Андре Дюссолье, Тикки Ольгадо, Доминик , Беттенфельд, Жан-Пьер Дарруссен
Описание: Конец Первой мировой войны. История девушки, упорно ищущей своего исчезнувшего жениха. Он - один из пяти французских солдат, приговоренных при загадочных обстоятельствах военно-полевым судом к смерти.
Способом исполнения наказания избран не расстрел: приговоренных оставляют на нейтральной полосе, где их непременно настигнет пуля: если не противника, то своих же товарищей по оружию. Лишь бессмертная любовь способна преодолеть мучительное испытание с целью найти правду.

Изображение
Бюджет: $56 600 000
Сборы в мире: $70 115 868
Изображение
MPAA: Изображение
Релиз, раздача группы: Изображение, Изображение
Качество: BDRip
Формат: MKV
Видео: 1920x816 at 24.000 fps (True24p), x264@L4.1, 2pass, ~11.500 Kbps avg
Аудио#1: Russian: 48 kHz, AC3, 3/2 (L,C,R,l,r) + LFE ch, ~448.00 kbps avg |Дубляж|
Аудио#2: French: 48 kHz, DTS, 3/2 (L,C,R,l,r) + LFE ch, ~1536.00 kbps avg
Аудио#3: French: 48 kHz, DTS, 3/2 (L,C,R,l,r) + LFE ch, ~768.00 kbps avg |Director's Commentary|
Субтитры: Russian, English
Знаете ли вы, что...
* Сцена с казнью Тины Ломбарди соответствует документальной съёмке последней публичной казни, прошедшей во Франции в 1939 году.
* Жан-Пьерр Жене ждал возможности экранизации своего любимого романа Себастьяна Жапризо больше десяти лет.
* Вещь, которую Манек мастерит в конце фильма - это иллюстрация для рукописной книги, миниатюра на средневековый лад. Этого в романе, по которому поставлена «Долгая помолвка», не было: сам Жене придумал, вдохновленный сценой из «Американского друга» Вима Вендерса.
Свернуть

M.I.
Общее
Уникальный идентификатор         : 251670960121764622866237535851007454083 (0xBD561056B641DC75B7DFC15A61C02B83)
Полное имя                       : K:\Фильмы\Un.Long.Dimanche.de.Fiancailles.2004.1080p.BluRay.Rus.2xFr.HDCLUB.mkv
Формат                           : Matroska
Размер файла                     : 13,2 Гбайт
Продолжительность                : 2 ч. 13 м.
Общий поток                      : 14,2 Мбит/сек
Название фильма                  : Un Long Dimanche de Fiançailles (2004) - Release for HDClub
Дата кодирования                 : UTC 2009-12-23 12:17:56
Программа кодирования            : mkvmerge v2.9.8 ('C'est le bon') built on Aug 13 2009 12:49:06
Библиотека кодирования           : libebml v0.7.7 + libmatroska v0.8.1

Видео
Идентификатор                    : 1
Формат                           : AVC
Формат/Информация                : Advanced Video Codec
Профиль формата                  : High@L4.1
Параметр CABAC формата           : Да
Параметр ReFrames формата        : 5 кадры
Идентификатор кодека             : V_MPEG4/ISO/AVC
Продолжительность                : 2 ч. 13 м.
Битрейт                          : 11,5 Мбит/сек
Ширина                           : 1920 пикс.
Высота                           : 816 пикс.
Соотношение сторон               : 2,35:1
Частота кадров                   : 24,000 кадр/сек
Цветовое пространство            : YUV
Подвыборка цветности             : 4:2:0
Битовая глубина                  : 8 бит
Тип развёртки                    : Прогрессивная
Бит/(Пиксели*Кадры)              : 0.306
Размер потока                    : 10,4 Гбайт (79%)
Заголовок                        : Release for HDClub
Библиотека кодирования           : x264 core 80 r1369M ec8e586
Настройки программы              : cabac=1 / ref=5 / deblock=1:-3:-3 / analyse=0x3:0x133 / me=esa / subme=10 / psy=1 / psy_rd=1.1:0.0 / mixed_ref=1 / me_range=48 / chroma_me=1 / trellis=2 / 8x8dct=1 / cqm=0 / deadzone=21,11 / fast_pskip=0 / chroma_qp_offset=-2 / threads=12 / sliced_threads=0 / nr=0 / decimate=0 / mbaff=0 / constrained_intra=0 / bframes=5 / b_pyramid=0 / b_adapt=2 / b_bias=0 / direct=3 / wpredb=1 / wpredp=2 / keyint=250 / keyint_min=25 / scenecut=40 / rc_lookahead=60 / rc=2pass / mbtree=1 / bitrate=11500 / ratetol=1.0 / qcomp=0.60 / qpmin=10 / qpmax=51 / qpstep=4 / cplxblur=20.0 / qblur=0.5 / ip_ratio=1.40 / aq=1:1.00
Язык                             : French

Аудио #1
Идентификатор                    : 2
Формат                           : AC-3
Формат/Информация                : Audio Coding 3
Расширение режима                : CM (complete main)
Идентификатор кодека             : A_AC3
Продолжительность                : 2 ч. 13 м.
Вид битрейта                     : Постоянный
Битрейт                          : 448 Кбит/сек
Канал(ы)                         : 6 канала(ов)
Расположение каналов             : Front: L C R, Side: L R, LFE
Частота                          : 48,0 КГц
Битовая глубина                  : 16 бит
Метод сжатия                     : С потерями
Размер потока                    : 427 Мбайт (3%)
Заголовок                        : AC3 5.1 448 kbps Дубляж
Язык                             : Russian

Аудио #2
Идентификатор                    : 3
Формат                           : DTS
Формат/Информация                : Digital Theater Systems
Идентификатор кодека             : A_DTS
Продолжительность                : 2 ч. 13 м.
Вид битрейта                     : Постоянный
Битрейт                          : 1510 Кбит/сек
Канал(ы)                         : 6 канала(ов)
Расположение каналов             : Front: L C R, Side: L R, LFE
Частота                          : 48,0 КГц
Битовая глубина                  : 24 бит
Метод сжатия                     : С потерями
Размер потока                    : 1,40 Гбайт (11%)
Заголовок                        : DTS 5.1 1536 kbps
Язык                             : French

Аудио #3
Идентификатор                    : 4
Формат                           : DTS
Формат/Информация                : Digital Theater Systems
Идентификатор кодека             : A_DTS
Продолжительность                : 2 ч. 13 м.
Вид битрейта                     : Постоянный
Битрейт                          : 755 Кбит/сек
Канал(ы)                         : 2 канала(ов)
Расположение каналов             : Front: L R
Частота                          : 48,0 КГц
Битовая глубина                  : 24 бит
Метод сжатия                     : С потерями
Размер потока                    : 719 Мбайт (5%)
Заголовок                        : DTS 2.0 768 kbps Director's Commentary
Язык                             : French

Текст #1
Идентификатор                    : 5
Формат                           : UTF-8
Идентификатор кодека             : S_TEXT/UTF8
Идентификатор кодека/Информация  : UTF-8 Plain Text
Язык                             : Russian

Текст #2
Идентификатор                    : 6
Формат                           : UTF-8
Идентификатор кодека             : S_TEXT/UTF8
Идентификатор кодека/Информация  : UTF-8 Plain Text
Язык                             : English
Свернуть
Скриншоты
Изображение
Изображение
Изображение
Изображение
Свернуть
Не в сети
Профиль  
Начать новую темуОтветить на тему  [ 1 сообщение ] 
Вы не можете начинать темы
Вы не можете отвечать на сообщения
Вы не можете редактировать свои сообщения
Вы не можете удалять свои сообщения