Правила форума

Здесь находятся раздачи, на которых не было полного источника (сида) более месяца.
Вы можете вернуть релиз в соответствующий раздел, для этого напишите нам в специальной теме и встаньте на раздачу.
Новые релизы, повторяющие релизы в архиве, повторами не считаются.
Начать новую темуОтветить на тему  [ Сообщений: 8 ] 
Сообщения
 Добавлено: 2014-10-06 19:34
DVD Release Group
Аватара пользователя
Стаж: 7 лет 1 месяц
Сообщений: 3570
Спасибок: 247893
Лайков: 1021
Домашнее видео

Sex Tape


Изображение


Год выпуска: 2014
Страна: США
Жанр: Комедия
Продолжительность: 01:34:35
Перевод: Профессиональный (полное дублирование) чистый звук
Субтитры: Aнглийские
Режиссер: Джейк Кэздан
В ролях: Кэмерон Диаз, Джейсон Сигел, Роб Кордри, Элли Кемпер, Роб Лоу, Нат Факсон,, Нэнси Ленехан, Жизелль Эйзенберг, Харрисон Хольцер, Себастьян Хеджес Томас
Описание: Семейная пара, оставшись на одну ночь без детей, решает повеселиться и записать пикантное видео со своим участием. На следующее утро они обнаруживают, что видео видели не только они…
Изображение
Качество: BDRip 1080p
Формат: MKV
Видео кодек: H.264
Аудио кодек: AC3, DTS
Видео: 1920x1036 23.98fps 7777kbps
Аудио:
Аудио Rus: AC3 48kHz 2ch 384kbps
Аудио Eng: DTS 48kHz 6ch 1510kbps
"MediaInfo"
Формат : Matroska
Версия формата : Version 2
Размер файла : 6,39 Гбайт
Продолжительность : 1 ч. 34 м.
Общий поток : 9669 Кбит/сек
Название фильма : Домашнее видео.2014.Rip by: ollan
Дата кодирования : UTC 2014-10-06 15:37:15
Программа кодирования : mkvmerge v5.6.0 ('Kenya Kane') built on May 27 2012 16:44:04
Библиотека кодирования : libebml v1.2.3 + libmatroska v1.3.0

Видео
Идентификатор : 1
Формат : AVC
Формат/Информация : Advanced Video Codec
Профиль формата : High@L4.1
Параметр CABAC формата : Да
Параметр ReFrames формата : 4 кадра
Идентификатор кодека : V_MPEG4/ISO/AVC
Продолжительность : 1 ч. 34 м.
Битрейт : 7777 Кбит/сек
Ширина : 1920 пикселей
Высота : 1036 пикселей
Соотношение сторон : 1,85:1
Режим частоты кадров : Постоянный
Частота кадров : 23,976 кадра/сек
Цветовое пространство : YUV
Субдискретизация насыщенности : 4:2:0
Битовая глубина : 8 бит
Тип развёртки : Прогрессивная
Бит/(Пиксели*Кадры) : 0.163
Размер потока : 5,01 Гбайт (78%)
Библиотека кодирования : x264 core 125 r2200 999b753
Настройки программы : cabac=1 / ref=4 / deblock=1:-3:-3 / analyse=0x3:0x133 / me=umh / subme=11 / psy=1 / psy_rd=1.00:0.10 / mixed_ref=1 / me_range=32 / chroma_me=1 / trellis=2 / 8x8dct=1 / cqm=0 / deadzone=21,11 / fast_pskip=0 / chroma_qp_offset=-3 / threads=12 / lookahead_threads=2 / sliced_threads=0 / nr=0 / decimate=0 / interlaced=0 / bluray_compat=0 / constrained_intra=0 / bframes=9 / b_pyramid=2 / b_adapt=2 / b_bias=0 / direct=3 / weightb=1 / open_gop=0 / weightp=2 / keyint=240 / keyint_min=23 / scenecut=40 / intra_refresh=0 / rc_lookahead=60 / rc=2pass / mbtree=1 / bitrate=7777 / ratetol=1.0 / qcomp=0.60 / qpmin=0 / qpmax=69 / qpstep=4 / cplxblur=20.0 / qblur=0.5 / ip_ratio=1.40 / aq=1:1.00
Язык : English
Default : Нет
Forced : Нет

Аудио #1
Идентификатор : 2
Формат : AC-3
Формат/Информация : Audio Coding 3
Расширение режима : CM (complete main)
Параметр Endianness формата : Big
Идентификатор кодека : A_AC3
Продолжительность : 1 ч. 34 м.
Вид битрейта : Постоянный
Битрейт : 384 Кбит/сек
Каналы : 2 канала
Расположение каналов : Front: L R
Частота : 48,0 КГц
Битовая глубина : 16 бит
Метод сжатия : С потерями
Размер потока : 260 Мбайт (4%)
Заголовок : Дублированный (Чистый звук)
Язык : Russian
Default : Да
Forced : Нет

Аудио #2
Идентификатор : 3
Формат : DTS
Формат/Информация : Digital Theater Systems
Режим : 16
Параметр Endianness формата : Big
Идентификатор кодека : A_DTS
Продолжительность : 1 ч. 34 м.
Вид битрейта : Постоянный
Битрейт : 1509 Кбит/сек
Каналы : 6 каналов
Расположение каналов : Front: L C R, Side: L R, LFE
Частота : 48,0 КГц
Битовая глубина : 16 бит
Метод сжатия : С потерями
Размер потока : 1021 Мбайт (16%)
Язык : English
Default : Нет
Forced : Нет

Текст
Идентификатор : 4
Формат : UTF-8
Идентификатор кодека : S_TEXT/UTF8
Идентификатор кодека/Информация : UTF-8 Plain Text
Заголовок : Full
Язык : English
Default : Нет
Forced : Нет

Меню
00:00:00.000 : en:00:00:00.000
00:03:53.483 : en:00:03:53.483
00:09:34.073 : en:00:09:34.073
00:14:36.626 : en:00:14:36.626
00:20:05.287 : en:00:20:05.287
00:27:21.014 : en:00:27:21.014
00:34:03.667 : en:00:34:03.667
00:40:19.167 : en:00:40:19.167
00:45:21.636 : en:00:45:21.636
00:50:42.706 : en:00:50:42.706
00:57:41.541 : en:00:57:41.541
01:05:34.556 : en:01:05:34.556
01:11:51.682 : en:01:11:51.682
01:20:06.510 : en:01:20:06.510
01:25:16.737 : en:01:25:16.737
01:29:47.299 : en:01:29:47.299
Свернуть

"Скриншоты"
Изображение
Изображение
Изображение
Изображение
Изображение
Изображение
Свернуть
Не в сети
Профиль  
 Добавлено: 2014-10-09 14:47 (спустя 2 дня 19 часов)
Модератор
Аватара пользователя
Стаж: 8 лет 2 месяца
Возраст: 30
Сообщений: 3202
Спасибок: 2960
Лайков: 207
Весь фильм сплошная реклама яблофилов :ps_ih:
_________________

ИзображениеПравила Создание релизов от А до Я
Не в сети
Профиль  
 Добавлено: 2014-10-09 18:30 (спустя 3 часа)
Аватара пользователя
Стаж: 7 лет 2 месяца
Возраст: 28
Сообщений: 27
Лайков: 1
все минусы яблогаджетов в одном фильме! :-D :bra_vo:
Не в сети
Профиль  
 Добавлено: 2014-10-10 18:49 (спустя 1 день)
Стаж: 2 года 5 месяцев
Сообщений: 2
Всё это хорошо, но как сам фильм-то? Смотреть можно?
Не в сети
Профиль  
 Добавлено: 2014-10-10 19:15 (спустя 26 минут)
Стаж: 5 лет 3 месяца
Сообщений: 150
Лайков: 2
Фильм полнеейшее ДЕРЬМИЩЕЕЕЕЕЕЕЕЕЕЕЕЕЕЕЕЕ!!!!!!!!!!!!!!!!!!!!!!!!!!!!!!Не рекомендуется к просмотру!!!!!!
Не в сети
Профиль  
 Добавлено: 2014-10-13 19:36 (спустя 3 дня)
Аватара пользователя
Стаж: 8 лет 3 месяца
Сообщений: 198
Лайков: 8
Эт точно!
Не в сети
Профиль  
 Добавлено: 2014-10-18 20:46 (спустя 5 дней)
Аватара пользователя
Стаж: 7 лет 2 месяца
Сообщений: 510
Лайков: 6
плюсуюсь к полнейшему дерьмищу посмотрел минут 10!тупо мерзко
Не в сети
Профиль  
 Добавлено: 2014-10-21 16:55 (спустя 2 дня 20 часов)
Стаж: 8 лет 1 месяц
Сообщений: 216
Лайков: 24
Можно глянуть ради задницы Камерон ДИАЗ :-[
Не в сети
Профиль  
Начать новую темуОтветить на тему  [ Сообщений: 8 ] 
Вы не можете начинать темы
Вы не можете отвечать на сообщения
Вы не можете редактировать свои сообщения
Вы не можете удалять свои сообщения