Правила форума

Здесь находятся раздачи, на которых не было полного источника (сида) более месяца.
Вы можете вернуть релиз в соответствующий раздел, для этого напишите нам в специальной теме и встаньте на раздачу.
Новые релизы, повторяющие релизы в архиве, повторами не считаются.
Начать новую темуОтветить на тему  [ Сообщений: 11 ] 
Сообщения
 Добавлено: 2013-03-11 12:20
Модератор релиз-группы
Аватара пользователя
Стаж: 9 лет 1 месяц
Возраст: 97
Сообщений: 11660
Спасибок: 6534
Лайков: 269
Доспехи Бога 3: Миссия Зодиак / Chinese Zodiac
«Охота за сокровищами началась»

Изображение

Год выпуска: 2012
Страна: Гонконг, Китай
Жанр: боевик, комедия, приключения
Продолжительность: 02:03:20
Перевод: Любительский одноголосый
Режиссер: Джеки Чан

В ролях: Джеки Чан, Квон Сан У, Ляо Фань, Синтхун Яо, Чжан Ланьсинь, Лаура Вейссбеккер, Оливер Платт, Шу Ци, Кэйтлин Дешель, Кенни Джи, Алаа Омузун, Эмили Гуйо

Описание: Группа в обновленном составе направляется на тропический остров, где среди обломков севшего на мель корабля спрятаны еще две статуэтки. В тропиках Джею Си и его друзьям противостоит банда разношерстных пиратов. Только благодаря безупречным боевым навыкам героя удается одержать верх. Вернувшись домой, Джей Си с удивлением узнает, что таинственный заказчик уже собрал шесть других статуэток. Ничего удивительного в том, что Ястреб собирается преподать ему урок хороших манер.
Изображение
Качество: BDRip 1080p
Формат: mkv
Видео: 11.2 Мбит/с, 1920x804,(2,40:1), 24,000 fps, AVC
Аудио: Русский (MP3, 2 ch, 128 Кбит/с)
Субтитры: Английские

"Скриншоты"
Изображение

Изображение

Изображение
Свернуть
Mi
General
Unique ID : 230424547591474357509037878417153585717 (0xAD5A27532BA2096CABD8B369F80BF235)
Complete name : D:\chinese.zodiac.2012.1080p.bluray.dts.x264-publichd.mkv
Format : Matroska
Format version : Version 4 / Version 2
File size : 9.98 GiB
Duration : 2h 3mn
Overall bit rate : 11.6 Mbps
Encoded date : UTC 2013-03-08 07:26:58
Writing application : mkvmerge v6.1.0 ('Old Devil') built on Mar 2 2013 14:32:37
Writing library : libebml v1.3.0 + libmatroska v1.4.0

Video
ID : 1
Format : AVC
Format/Info : Advanced Video Codec
Format profile : High@L4.1
Format settings, CABAC : Yes
Format settings, ReFrames : 5 frames
Codec ID : V_MPEG4/ISO/AVC
Duration : 2h 3mn
Bit rate : 11.2 Mbps
Nominal bit rate : 12.0 Mbps
Width : 1 920 pixels
Height : 804 pixels
Display aspect ratio : 2.40:1
Frame rate mode : Constant
Frame rate : 24.000 fps
Color space : YUV
Chroma subsampling : 4:2:0
Bit depth : 8 bits
Scan type : Progressive
Bits/(Pixel*Frame) : 0.303
Stream size : 9.68 GiB (97%)
Writing library : x264 core 129 r2230 1cffe9f
Encoding settings : cabac=1 / ref=5 / deblock=1:-3:-3 / analyse=0x3:0x113 / me=umh / subme=7 / psy=1 / psy_rd=1.00:0.00 / mixed_ref=1 / me_range=16 / chroma_me=1 / trellis=1 / 8x8dct=1 / cqm=0 / deadzone=21,11 / fast_pskip=1 / chroma_qp_offset=-2 / threads=12 / lookahead_threads=2 / sliced_threads=0 / nr=0 / decimate=1 / interlaced=0 / bluray_compat=0 / constrained_intra=0 / bframes=3 / b_pyramid=2 / b_adapt=1 / b_bias=0 / direct=3 / weightb=1 / open_gop=0 / weightp=2 / keyint=240 / keyint_min=24 / scenecut=40 / intra_refresh=0 / rc_lookahead=50 / rc=abr / mbtree=1 / bitrate=12000 / ratetol=1.0 / qcomp=0.60 / qpmin=0 / qpmax=69 / qpstep=4 / ip_ratio=1.40 / aq=1:1.00
Language : English
Default : Yes
Forced : No

Audio
ID : 2
Format : MPEG Audio
Format version : Version 1
Format profile : Layer 3
Codec ID : A_MPEG/L3
Codec ID/Hint : MP3
Duration : 2h 3mn
Bit rate mode : Constant
Bit rate : 128 Kbps
Channel(s) : 2 channels
Sampling rate : 48.0 KHz
Compression mode : Lossy
Delay relative to video : 57s 0ms
Stream size : 113 MiB (1%)
Language : Russian
Default : Yes
Forced : No

Text
ID : 3
Format : VobSub
Muxing mode : zlib
Codec ID : S_VOBSUB
Codec ID/Info : The same subtitle format used on DVDs
Language : English
Default : Yes
Forced : No

Menu
00:00:00.000 : en:00:00:00.000
00:11:23.208 : en:00:11:23.208
00:18:11.542 : en:00:18:11.542
00:31:52.583 : en:00:31:52.583
00:41:46.000 : en:00:41:46.000
00:50:53.958 : en:00:50:53.958
01:04:57.083 : en:01:04:57.083
01:10:09.292 : en:01:10:09.292
01:20:00.292 : en:01:20:00.292
01:27:49.500 : en:01:27:49.500
01:41:28.667 : en:01:41:28.667
01:53:58.000 : en:01:53:58.000

Свернуть
дублированная дорожка R5
_________________
Изображение


Последний раз редактировалось Артурыч 2013-03-11 20:34, всего редактировалось 1 раз.
Не в сети
Профиль  
 Добавлено: 2013-03-11 13:03 (спустя 42 минуты)
Top-seeder
Аватара пользователя
Стаж: 8 лет 8 месяцев
Возраст: 26
Сообщений: 665
Спасибок: 2687
Лайков: 2
Перевод: Любительский одноголосый

не круто :'(
Не в сети
Профиль  
 Добавлено: 2013-03-11 13:04 (спустя 1 минута)
Стаж: 5 лет 3 месяца
Сообщений: 150
Лайков: 2
Ваще не круто!
Не в сети
Профиль  
 Добавлено: 2013-03-11 13:18 (спустя 14 минут)
Пользователь забанен
Аватара пользователя
Стаж: 6 лет 10 месяцев
Возраст: 35
Сообщений: 161
Спасибок: 67
Лайков: 15
Поидее взять звуковую дорожку перекодировать. И наложить. Делов а часа два. Вроде был чистый звук.
_________________
Only Psyhedelic
Не в сети
Профиль  
 Добавлено: 2013-03-11 18:52 (спустя 5 часов)
Аватара пользователя
Стаж: 8 лет
Сообщений: 1393
Спасибок: 39
Лайков: 64
Psyhedelic
+1
Не в сети
Профиль  
 Добавлено: 2013-03-11 18:59 (спустя 6 минут)
Модератор релиз-группы
Аватара пользователя
Стаж: 9 лет 1 месяц
Возраст: 97
Сообщений: 11660
Спасибок: 6534
Лайков: 269
Psyhedelic
ferguson
+100500 ;;-)))
лицензия в соседнем разделе лежит, действуйте-злодействуйте,вместо плюсиков и советов сделали и выложили

_________________
Изображение
Не в сети
Профиль  
 Добавлено: 2013-03-11 19:29 (спустя 29 минут)
Аватара пользователя
Стаж: 8 лет 3 месяца
Возраст: 29
Сообщений: 109
Спасибок: 3
почему в раздаче не указанно что перевод гавно?!
_________________
Изображение
Не в сети
Профиль  
 Добавлено: 2013-03-11 19:29 (спустя 21 секунда)
Аватара пользователя
Стаж: 8 лет 3 месяца
Возраст: 29
Сообщений: 109
Спасибок: 3
почему в названии раздачи не указанно что перевод гавно?!
_________________
Изображение
Не в сети
Профиль  
 Добавлено: 2013-03-11 20:11 (спустя 42 минуты)
Модератор релиз-группы
Аватара пользователя
Стаж: 9 лет 1 месяц
Возраст: 97
Сообщений: 11660
Спасибок: 6534
Лайков: 269
вот и старайся для людей, а быдло всё опошлят
_________________
Изображение
Не в сети
Профиль  
 Добавлено: 2013-03-11 22:32 (спустя 2 часа 20 минут)
Аватара пользователя
Стаж: 7 лет 10 месяцев
Сообщений: 33
есть же дубляж уже, в чём проблема?
Не в сети
Профиль  
 Добавлено: 2013-03-12 06:44 (спустя 8 часов)
Руководитель релиз-группы
Аватара пользователя
Стаж: 7 лет 5 месяцев
Возраст: 31
Сообщений: 3406
Спасибок: 46729
Лайков: 5
viewtopic.php?f=1750&t=502386
Не в сети
Профиль  
Начать новую темуОтветить на тему  [ Сообщений: 11 ] 
Вы не можете начинать темы
Вы не можете отвечать на сообщения
Вы не можете редактировать свои сообщения
Вы не можете удалять свои сообщения