Правила форума

Здесь находятся раздачи, на которых не было полного источника (сида) более месяца.
Вы можете вернуть релиз в соответствующий раздел, для этого напишите нам в специальной теме и встаньте на раздачу.
Новые релизы, повторяющие релизы в архиве, повторами не считаются.
Начать новую темуОтветить на тему  [ Сообщений: 5 ] 
Сообщения
 Добавлено: 2013-03-11 20:55
Аватара пользователя
Стаж: 9 лет 1 месяц
Сообщений: 8095
Спасибок: 122340
Лайков: 1196
Доспехи Бога 3: Миссия Зодиак / Chinese Zodiac

«Охота за сокровищами началась»

Изображение


Год выпуска: 2012
Страна: Изображение Гонконг Изображение Китай
Жанр: боевик, комедия, приключения
Продолжительность: 02:02:56
Субтитры: Английские
Перевод: Профессиональный (полное дублирование) [Лицензия]


Режиссёр: Джеки Чан
Сценарист: Джеки Чан, Фрэнки Чан, Эдвард Танг
Продюсер: Джеки Чан, Эсмонд Рен, Барби Танг
Оператор: Джеки Чан, Ман-Чинг Нг
Композитор: Рок Чен, Натан Ванг
Художник: Джеки Чан

В ролях: Джеки Чан, Квон Сан У, Ляо Фань, Синтхун Яо, Чжан Ланьсинь, Лаура Вейссбеккер, Оливер Плэтт, Эмили Гуйо, Кэйтлин Дешель, Кенни Джи

Описание: Главный герой истории — работающий по всему миру охотник за сокровищами Джей Си по кличке Ястреб. Известный антиквар предлагает ему отыскать шесть редких статуэток в виде голов животных. В свое время эти бронзовые скульптуры входили в набор из 12-ти предметов, олицетворявших знаки зодиака. Фигурки украшали фонтан легендарного Летнего дворца на окраине Пекина. В 1860 году величественное сооружение было разграблено и разрушено англо-французскими войсками на исходе Второй опиумной войны, а статуэтки безвозвратно утеряны.

Сначала Джей Си с командой помощников отправляется во Францию, поскольку две статуэтки хранятся у одного из французских коллекционеров. В процессе операции по изъятию бронзовых скульптур из хорошо охраняемого замка Джей Си знакомится с Коко — китайской студенткой, учащейся в Париже. Девушка принимает активное участие в глобальной кампании по возвращению утраченных культурных ценностей в страны, откуда они были вывезены. Попутно Джей Си наживает себе злейшего врага в лице Пьера, шефа охраны замка Шато Марсо. Вместе с тем, охотник за сокровищами обретает верного друга в лице Кэтрин, разорившейся аристократки, в доме которой он находит одну из статуэток. Коко и Кэтрин присоединяются к компании Ястреба.

Группа в обновленном составе направляется на тропический остров, где среди обломков севшего на мель корабля спрятаны еще две статуэтки. В тропиках Джею Си и его друзьям противостоит банда разношерстных пиратов. Только благодаря безупречным боевым навыкам героя удается одержать верх. Вернувшись домой, Джей Си с удивлением узнает, что таинственный заказчик уже собрал шесть других статуэток. Ничего удивительного в том, что Ястреб собирается преподать ему урок хороших манер.


Изображение Изображение

Качество: BDRip (1080p)
Формат: Matroska
Видео: MPEG-4 AVC, 11.2 Мбит/с, 1920x804
Аудио: Русский (AC3, 48,0 КГц, 6 ch, 448 Кбит/с)

MediaInfo
Общее
Уникальный идентификатор : 218393626779012875590118253879518447478 (0xA44D1521D8A52DC68C2DF5E69B5A4776)
Полное имя : C:\Фильмы\Chinese.Zodiac.2012.D.BDRip.1080p.nntt.org.mkv
Формат : Matroska
Версия формата : Version 2
Размер файла : 10,3 Гбайт
Продолжительность : 2 ч. 2 м.
Общий поток : 11,9 Мбит/сек
Дата кодирования : UTC 2013-03-11 16:32:37
Программа кодирования : mkvmerge v5.7.0 ('The Whirlwind') built on Jul 29 2012 15:12:35
Библиотека кодирования : libebml v1.2.3 + libmatroska v1.3.0

Видео
Идентификатор : 1
Формат : AVC
Формат/Информация : Advanced Video Codec
Профиль формата : High@L4.1
Параметр CABAC формата : Да
Параметр ReFrames формата : 5 кадров
Идентификатор кодека : V_MPEG4/ISO/AVC
Продолжительность : 2 ч. 2 м.
Битрейт : 11,3 Мбит/сек
Номинальный битрейт : 12,0 Мбит/сек
Ширина : 1920 пикселей
Высота : 804 пикселя
Соотношение сторон : 2,40:1
Режим частоты кадров : Постоянный
Частота кадров : 24,000 кадра/сек
Цветовое пространство : YUV
Субдискретизация насыщенности : 4:2:0
Битовая глубина : 8 бит
Тип развёртки : Прогрессивная
Бит/(Пиксели*Кадры) : 0.304
Размер потока : 9,67 Гбайт (94%)
Библиотека кодирования : x264 core 129 r2230 1cffe9f
Настройки программы : cabac=1 / ref=5 / deblock=1:-3:-3 / analyse=0x3:0x113 / me=umh / subme=7 / psy=1 / psy_rd=1.00:0.00 / mixed_ref=1 / me_range=16 / chroma_me=1 / trellis=1 / 8x8dct=1 / cqm=0 / deadzone=21,11 / fast_pskip=1 / chroma_qp_offset=-2 / threads=12 / lookahead_threads=2 / sliced_threads=0 / nr=0 / decimate=1 / interlaced=0 / bluray_compat=0 / constrained_intra=0 / bframes=3 / b_pyramid=2 / b_adapt=1 / b_bias=0 / direct=3 / weightb=1 / open_gop=0 / weightp=2 / keyint=240 / keyint_min=24 / scenecut=40 / intra_refresh=0 / rc_lookahead=50 / rc=abr / mbtree=1 / bitrate=12000 / ratetol=1.0 / qcomp=0.60 / qpmin=0 / qpmax=69 / qpstep=4 / ip_ratio=1.40 / aq=1:1.00
Язык : English
Default : Да
Forced : Нет

Аудио
Идентификатор : 2
Формат : AC-3
Формат/Информация : Audio Coding 3
Расширение режима : CM (complete main)
Параметр Endianness формата : Big
Идентификатор кодека : A_AC3
Продолжительность : 2 ч. 2 м.
Вид битрейта : Постоянный
Битрейт : 448 Кбит/сек
Каналы : 6 каналов
Расположение каналов : Front: L C R, Side: L R, LFE
Частота : 48,0 КГц
Битовая глубина : 16 бит
Метод сжатия : С потерями
Размер потока : 394 Мбайт (4%)
Заголовок : Дубляж - Лицензия
Язык : Russian
Default : Да
Forced : Нет

Текст
Идентификатор : 3
Формат : VobSub
Режим смешивания : zlib
Идентификатор кодека : S_VOBSUB
Идентификатор кодека/Информация : The same subtitle format used on DVDs
Язык : English
Default : Да
Forced : Нет

Меню
00:00:00.000 : en:00:00:00.000
00:11:23.208 : en:00:11:23.208
00:18:11.542 : en:00:18:11.542
00:31:52.583 : en:00:31:52.583
00:41:46.000 : en:00:41:46.000
00:50:53.958 : en:00:50:53.958
01:04:57.083 : en:01:04:57.083
01:10:09.292 : en:01:10:09.292
01:20:00.292 : en:01:20:00.292
01:27:49.500 : en:01:27:49.500
01:41:28.667 : en:01:41:28.667
01:53:58.000 : en:01:53:58.000
Свернуть
Знаете ли вы, что...
Съемки главной сцены драки в фильме обошлись в 70 миллионов юаней (на 2012 год это более чем 10 млн. долларов США).

Фильм частично снят по мотивам сериала Акиры Ториямы «Драконий жемчуг». Сам Торияма отметил Джеки Чана как человека, сильно повлиявшего на его работу.

В период с 18 апреля по 2 мая 2012 года некоторые сцены снимались в Аэродиуме (вертикальной аэродинамической трубе) в Елгаве (Латвия).

Четырехминутная трюковая сцена была снята на горе Ясур (вулкан на острове Танна в Вануату).

Джеки Чан установил рекорд Гиннесса в фильме, получив его за «Самое большое количество упоминаний в титрах». Чан работал на 15 основных должностях, которые были задействованы во время создания фильма, в том числе: режиссер, продюсер, актер, хореограф по сценам драк и композитор, тем самым он побил предыдущий рекорд — 11 упоминаний в титрах, который удерживал Роберт Родригес.

Свернуть
Скриншоты
Изображение
Изображение
Изображение
Свернуть
Не в сети
Профиль  
 Добавлено: 2013-03-11 21:50 (спустя 54 минуты)
Модератор
Аватара пользователя
Стаж: 6 лет 10 месяцев
Возраст: 33
Сообщений: 5908
Спасибок: 61265
Лайков: 3540
Звук с DVD, русских сабов нет
_________________
ИзображениеИзображение Изображение
Изображение
Не в сети
Профиль  
 Добавлено: 2013-03-11 21:54 (спустя 3 минуты)
Аватара пользователя
Стаж: 9 лет 1 месяц
Сообщений: 8095
Спасибок: 122340
Лайков: 1196
звук с блюра
Не в сети
Профиль  
 Добавлено: 2013-03-11 22:54 (спустя 1 час)
Стаж: 8 лет 10 месяцев
Сообщений: 5
Спасибо!
Не в сети
Профиль  
 Добавлено: 2013-03-12 06:39 (спустя 7 часов)
Руководитель релиз-группы
Аватара пользователя
Стаж: 7 лет 5 месяцев
Возраст: 31
Сообщений: 3406
Спасибок: 46729
Лайков: 5
поглощен в пользу лучшего
viewtopic.php?f=1743&t=502386
Не в сети
Профиль  
Начать новую темуОтветить на тему  [ Сообщений: 5 ] 
Вы не можете начинать темы
Вы не можете отвечать на сообщения
Вы не можете редактировать свои сообщения
Вы не можете удалять свои сообщения