Правила форума

Здесь находятся раздачи, на которых не было полного источника (сида) более месяца.
Вы можете вернуть релиз в соответствующий раздел, для этого напишите нам в специальной теме и встаньте на раздачу.
Новые релизы, повторяющие релизы в архиве, повторами не считаются.
Начать новую темуОтветить на тему  [ Сообщений: 3 ] 
Сообщения
 Добавлено: 2011-10-22 21:34
Книголюб
Аватара пользователя
Стаж: 7 лет 2 месяца
Сообщений: 2823
Спасибок: 48830
Лайков: 73
Древо жизни
The Tree of Life
Изображение


Год выпуска: 2011
Страна: США
Слоган: «Our picture is a cosmic epic, a hymn to life»
Жанр: драма
Продолжительность: 02:12:44
Перевод: Любительский (одноголосый закадровый)

Режиссёр: Терренс Малик
В ролях: Брэд Питт, Шон Пенн, Фиона Шоу, Уилл Уоллес, Джессика Честейн, Хантер МакКракен, Ларами Эпплер, Ти Шеридан, Джессика Фусельер, Николас Гонда
Описание: Мы наблюдаем за развитием 11-летнего Джека, одного из трех братьев. Поначалу ребенку все кажется чудесным. Глазами своей души он наблюдает за поступками мамы. Она представляет собой любовь и милосердие, в то время как отец пытается научить сына, что в реальном мире на первое место необходимо всегда ставить себя. Каждый родитель старается переманить Джека на свою сторону, и он должен примириться с их притязаниями. Действительность становится мрачнее, когда главному герою в первый раз приходится столкнуться с болью, страданиями и смертью. Некогда абсолютно ясный мир превращается в лабиринт.
Рейтинг MPAA: Рейтинг PG-13 (Дети до 13 лет допускаются на фильм только с родителями)

Качество: BDRip 1080p
Формат: MKV
Видео кодек: AVC
Аудио кодек: AC3 (Dolby Digital)
Видео: 8450 Кбит/сек, 1920 x 1040 (1.846), 23.976 fps,0.177
Аудио #1: 448 kb/s (6 ch), 48000Hz

MediaInfo
General
Unique ID : 214895316049401613968643290203184369982 (0xA1AB5518BE688199B9EED785B08B113E)
Complete name : I:\Древо.жизни.2011.L1.1080p.BluRay.x264.FireBit.mkv
Format : Matroska
File size : 8.99 GiB
Duration : 2h 18mn
Overall bit rate : 9 275 Kbps
Movie name : Древо жизни / The Tree of Life (2011) BDRip 1080 от FireBit - firebit.org
Encoded date : UTC 2011-10-17 10:28:22
Writing application : mkvmerge v2.3.0 ('Freak U') built on Sep 8 2008 18:32:16
Writing library : libebml v0.7.7 + libmatroska v0.8.1

Video
ID : 1
Format : AVC
Format/Info : Advanced Video Codec
Format profile : High@L4.1
Format settings, CABAC : Yes
Format settings, ReFrames : 4 frames
Codec ID : V_MPEG4/ISO/AVC
Duration : 2h 18mn
Bit rate : 8 450 Kbps
Width : 1 920 pixels
Height : 1 040 pixels
Display aspect ratio : 16:9
Frame rate : 23.976 fps
Color space : YUV
Chroma subsampling : 4:2:0
Bit depth : 8 bits
Scan type : Progressive
Bits/(Pixel*Frame) : 0.177
Stream size : 8.19 GiB (91%)
Title : http://firebit.org
Language : English

Audio #1
ID : 2
Format : AC-3
Format/Info : Audio Coding 3
Mode extension : CM (complete main)
Codec ID : A_AC3
Duration : 2h 18mn
Bit rate mode : Constant
Bit rate : 448 Kbps
Channel(s) : 6 channels
Channel positions : Front: L C R, Side: L R, LFE
Sampling rate : 48.0 KHz
Bit depth : 16 bits
Compression mode : Lossy
Delay relative to video : 6ms
Stream size : 445 MiB (5%)
Title : http://firebit.org
Language : Russian

Audio #2
ID : 3
Format : AC-3
Format/Info : Audio Coding 3
Mode extension : CM (complete main)
Codec ID : A_AC3
Duration : 2h 18mn
Bit rate mode : Constant
Bit rate : 192 Kbps
Channel(s) : 2 channels
Channel positions : Front: L R
Sampling rate : 48.0 KHz
Bit depth : 16 bits
Compression mode : Lossy
Delay relative to video : 6ms
Stream size : 191 MiB (2%)
Title : http://firebit.org
Language : English

Text #1
ID : 4
Format : UTF-8
Codec ID : S_TEXT/UTF8
Codec ID/Info : UTF-8 Plain Text
Title : http://firebit.org
Language : English

Text #2
ID : 5
Format : UTF-8
Codec ID : S_TEXT/UTF8
Codec ID/Info : UTF-8 Plain Text
Title : http://firebit.org
Language : Russian

Text #3
ID : 6
Format : UTF-8
Codec ID : S_TEXT/UTF8
Codec ID/Info : UTF-8 Plain Text
Title : http://firebit.org
Language : English


Свернуть


Скриншоты
Изображение
Изображение
Изображение
Изображение
Свернуть
Не в сети
Профиль  
 Добавлено: 2011-10-23 10:56 (спустя 13 часов)
Стаж: 8 лет 3 месяца
Сообщений: 7
Спасибок: 1
когда будет дубляж?
Не в сети
Профиль  
 Добавлено: 2011-11-19 17:19 (спустя 27 дней)
Аватара пользователя
Стаж: 8 лет 3 месяца
Возраст: 43
Сообщений: 3290
Спасибок: 21012
Лайков: 3
viewtopic.php?f=1750&t=437655
_________________
Изображение
Не в сети
Профиль  
Начать новую темуОтветить на тему  [ Сообщений: 3 ] 
Вы не можете начинать темы
Вы не можете отвечать на сообщения
Вы не можете редактировать свои сообщения
Вы не можете удалять свои сообщения