Правила форума

Здесь находятся раздачи, на которых не было полного источника (сида) более месяца.
Вы можете вернуть релиз в соответствующий раздел, для этого напишите нам в специальной теме и встаньте на раздачу.
Новые релизы, повторяющие релизы в архиве, повторами не считаются.
Начать новую темуОтветить на тему  [ Сообщений: 2 ] 
Сообщения
 Добавлено: 2011-12-10 19:00
Аватара пользователя
Стаж: 6 лет 6 месяцев
Сообщений: 214
Спасибок: 10697
Двойник дьявола
The Devil's Double

Изображение

Год выпуска: 2011
Страна: Нидерланды, Бельгия
Слоган: «Секс... власть... куча денег, что ещё нужно 'принцу' у которого есть всё?»

Жанр: драма, биография
Продолжительность: 01:48:50
Перевод: Профессиональный (полное дублирование)

Режиссер: Ли Тамахори
Сценарий: Майкл Томас, Латиф Яхиа
Продюсер: Catherine Vandeleene, Пол Брюлс, Майкл Джон Федун, Эмджей Рехштейнер, Нильс Бургонж
Оператор: Сэм МакКёрди
Композитор: Кристиан Хенсон

В ролях: Доминик Купер, Людивин Санье, Раад Рави, Филип Куэст, Мимун Оайясса, Халид Лэйт, Дар Салим, Нассер Мемарзиа, Мем Ферда, Пано Масти, Акин Гази, Стюарт Скудамор
Дублёры: Александр Гаврилин, Наталья Грачева, Александр Новиков, Иван Жарков, Анастасия Нестеренко, Михаил Тихонов
Бюджет: $19 100 000
Сборы в США: $1 361 512
Сборы в России: $1 623 646

Мировая премьера: 22 января 2011
Релиз на DVD: 13 декабря 2011, «West Video»
Релиз на Blu-ray: 13 декабря 2011, «West Video»
Описание: Секс… Власть… Слишком много денег… Что еще может понадобиться «Принцу», у которого есть все? Разве что двойник.
На него можно спихнуть всю рутину, а в опасных ситуациях он примет удар на себя. Но и Двойник не останется без награды - он получит все, что есть у принца. Все, кроме женщины, которая станет единственным, что Двойник по-настоящему возжелает.
Изображение 7.1/10 (7,872 users) Изображение 7.189 (2 950)
Изображение
MPAA: Изображение - Лицам до 17 лет обязательно присутствие взрослого
Раздача: Изображение

Качество: Blu-Ray Remux R5
Контейнер: MKV
Видео : MPEG-4 AVC / 34993 kbps / 1080p / 23.976 fps / 16:9 / High Profile 4.1
Аудио 1: Русский дубляж / DTS-HD MA / 5.1 / 1998 kbps / 48 kHz / 16-bit (DTS Core: 5.1 / 48 kHz / 1509 kbps / 16-bit) (добавил заставку Lionsgate)
Аудио 2: Русский одноголосый В. Замез / DTS / 5.1 / 1536 kbps / 48 kHz (ненормативная лексика) (спасибо mihaildns)
Аудио 3: Русский одноголосый В. Замез / DTS / 5.1 / 1536 kbps / 48 kHz (спасибо mihaildns)
Аудио 4: Английский / DTS-HD MA / 7.1 / 4467 kbps / 48 kHz / 24-bit (DTS Core: 5.1 / 48 kHz / 1509 kbps / 24-bit)
Аудио 5: Английский / Dolby Digital / 2.0 / 224 kbps / 48 kHz (Commentary with Director Lee Tamahori)
Cубтитры 1: Русские srt (BD west video)
Cубтитры 2: Русские srt (Е.Воронин)
Cубтитры 3: Английские srt
Cубтитры 4: Английские pgs
Cубтитры 5: Английские SDH pgs
Главы: есть
NFO
Полное имя : The.Devil's.Double.2011.Blu-ray.1080p.AVC.Rus.Eng.mkv
Формат : Matroska
Версия формата : Version 2
Размер файла : 33,9 Гбайт
Продолжительность : 1 ч. 48 м.
Режим общего битрейта : Переменный
Общий поток : 44,5 Мбит/сек
Название фильма : HANSMER
Дата кодирования : UTC 2011-12-10 02:46:05
Программа кодирования : mkvmerge v5.1.0 ('And so it goes') built on Nov 28 2011 23:58:28
Библиотека кодирования : libebml v1.2.3 + libmatroska v1.3.0

Видео
Идентификатор : 1
Формат : AVC
Формат/Информация : Advanced Video Codec
Профиль формата : High@L4.1
Параметр CABAC формата : Да
Параметр ReFrames формата : 4 кадра
Параметр GOP формата : M=3, N=12
Режим смешивания : Container profile=Unknown@0.0
Идентификатор кодека : V_MPEG4/ISO/AVC
Продолжительность : 1 ч. 48 м.
Вид битрейта : Переменный
Битрейт : 37,0 Мбит/сек
Ширина : 1920 пикселей
Высота : 1080 пикселей
Соотношение сторон : 16:9
Частота кадров : 23,976 кадра/сек
Цветовое пространство : YUV
Субдискретизация насыщенности : 4:2:0
Битовая глубина : 8 бит
Тип развёртки : Прогрессивная
Бит/(Пиксели*Кадры) : 0.744
Размер потока : 28,3 Гбайт (84%)
Заголовок : 34993 kbps
Язык : English

Аудио #1
Идентификатор : 2
Формат : DTS
Формат/Информация : Digital Theater Systems
Профиль формата : MA / Core
Идентификатор кодека : A_DTS
Продолжительность : 1 ч. 48 м.
Вид битрейта : Переменный
Битрейт : 1561 Кбит/сек / 1510 Кбит/сек
Каналы : 6 каналов
Расположение каналов : Front: L C R, Side: L R, LFE
Частота : 48,0 КГц
Битовая глубина : 16 бит
Метод сжатия : Без потерь / Lossy
Заголовок : Dub / DTS-HD MA 5.1 @ 1998 kbps
Язык : Russian

Аудио #2
Идентификатор : 3
Формат : DTS
Формат/Информация : Digital Theater Systems
Идентификатор кодека : A_DTS
Продолжительность : 1 ч. 48 м.
Вид битрейта : Постоянный
Битрейт : 1510 Кбит/сек
Каналы : 6 каналов
Расположение каналов : Front: L C R, Side: L R, LFE
Частота : 48,0 КГц
Битовая глубина : 24 бит
Метод сжатия : С потерями
Размер потока : 1,15 Гбайт (3%)
Заголовок : Zamez (mat)
Язык : Russian

Аудио #3
Идентификатор : 4
Формат : DTS
Формат/Информация : Digital Theater Systems
Идентификатор кодека : A_DTS
Продолжительность : 1 ч. 48 м.
Вид битрейта : Постоянный
Битрейт : 1510 Кбит/сек
Каналы : 6 каналов
Расположение каналов : Front: L C R, Side: L R, LFE
Частота : 48,0 КГц
Битовая глубина : 24 бит
Метод сжатия : С потерями
Размер потока : 1,15 Гбайт (3%)
Заголовок : Zamez
Язык : Russian

Аудио #4
Идентификатор : 5
Формат : DTS
Формат/Информация : Digital Theater Systems
Профиль формата : MA / Core
Идентификатор кодека : A_DTS
Продолжительность : 1 ч. 48 м.
Вид битрейта : Переменный
Битрейт : 1597 Кбит/сек / 1510 Кбит/сек
Каналы : 8 каналов / 6 каналов
Расположение каналов : Front: L C R, Side: L R, Back: L R, LFE / Front: L C R, Side: L R, LFE
Частота : 48,0 КГц
Битовая глубина : 24 бит
Метод сжатия : Без потерь / Lossy
Заголовок : DTS-HD MA 7.1 @ 4467 kbps
Язык : English

Аудио #5
Идентификатор : 6
Формат : AC-3
Формат/Информация : Audio Coding 3
Расширение режима : CM (complete main)
Идентификатор кодека : A_AC3
Продолжительность : 1 ч. 48 м.
Вид битрейта : Постоянный
Битрейт : 224 Кбит/сек
Каналы : 2 канала
Расположение каналов : Front: L R
Частота : 48,0 КГц
Битовая глубина : 16 бит
Метод сжатия : С потерями
Размер потока : 174 Мбайт (1%)
Заголовок : Commentary with Director Lee Tamahori
Язык : English

Текст #1
Идентификатор : 7
Формат : UTF-8
Идентификатор кодека : S_TEXT/UTF8
Идентификатор кодека/Информация : UTF-8 Plain Text
Заголовок : BD west video
Язык : Russian

Текст #2
Идентификатор : 8
Формат : UTF-8
Идентификатор кодека : S_TEXT/UTF8
Идентификатор кодека/Информация : UTF-8 Plain Text
Заголовок : voronine
Язык : Russian

Текст #3
Идентификатор : 9
Формат : UTF-8
Идентификатор кодека : S_TEXT/UTF8
Идентификатор кодека/Информация : UTF-8 Plain Text
Язык : English

Текст #4
Идентификатор : 10
Формат : PGS
Идентификатор кодека : S_HDMV/PGS
Идентификатор кодека/Информация : The same subtitle format used on BDs/HD-DVDs
Заголовок : PGS
Язык : English

Текст #5
Идентификатор : 11
Формат : PGS
Идентификатор кодека : S_HDMV/PGS
Идентификатор кодека/Информация : The same subtitle format used on BDs/HD-DVDs
Заголовок : PGS SDH
Язык : English

Меню
00:00:00.000 : en:Security Detail
00:04:48.371 : en:I Want You
00:10:36.636 : en:You Belong to Him
00:21:14.982 : en:Family/Discipline
00:30:22.029 : en:Three Sons
00:33:36.097 : en:Public Appearance/Chasing Girls
00:44:50.354 : en:Taking Orders
00:48:07.051 : en:Spared/A Visitor
00:57:56.640 : en:Military Speech
01:01:37.694 : en:Ambushed
01:06:24.731 : en:Wedding Day/Do It Yourself
01:11:38.586 : en:Complaint/Proud of You/The Party
01:19:45.030 : en:New Ride/Come Back
01:27:45.927 : en:It Was You
01:32:54.486 : en:Your Father
01:38:42.125 : en:Justice
Свернуть
"Скриншоты"
Изображение
Изображение
Изображение
Изображение
Изображение
Изображение
Изображение
Свернуть
Не в сети
Профиль  
 Добавлено: 2011-12-12 20:21 (спустя 2 дня 1 час)
Кинокомментатор
Аватара пользователя
Стаж: 9 лет 1 месяц
Сообщений: 1332
Лайков: 54
ничё так киноша) удивило только что Бельгия с Голландией делали кино!) и Лионгейтс тоже столбит себе место в списке сильных мира кино:) и кино про Ирак) серьёзное дело:) мне понравилось:) интересно) динамично) красиво!) даже местами верилось:) и концовочка пазитивная:) порадовало:) 7/10
_________________
Я ВКонтакте
Не в сети
Профиль  
Начать новую темуОтветить на тему  [ Сообщений: 2 ] 
Вы не можете начинать темы
Вы не можете отвечать на сообщения
Вы не можете редактировать свои сообщения
Вы не можете удалять свои сообщения