Правила форума

Здесь находятся раздачи, на которых не было полного источника (сида) более месяца.
Вы можете вернуть релиз в соответствующий раздел, для этого напишите нам в специальной теме и встаньте на раздачу.
Новые релизы, повторяющие релизы в архиве, повторами не считаются.
Начать новую темуОтветить на тему  [ Сообщений: 2 ] 
Сообщения
 Добавлено: 2012-07-02 08:31
Top-releaser
Аватара пользователя
Стаж: 6 лет 7 месяцев
Сообщений: 2078
Спасибок: 3230
Лайков: 9
Двойной просчет / Double Jeopardy

Изображение


Год выпуска: 1999
Страна: Германия, США, Канада
Жанр: триллер, драма, криминал, детектив
Продолжительность: 01:40:40
Перевод: Профессиональный (многоголосый, закадровый)

Режиссёр: Брюс Бирсфорд
В ролях: Томми Ли Джонс, Эшли Джадд, Бенжамин Вейр, Джей Бразо, Брюс Гринвуд, Джон МакЛарен, Аннабет Гиш, Брюс Кэмпбелл
Описание: Молодой женщине пришлось отбывать срок за преступление, к которому она не имела никакого отношения. Более того, выяснилось, что подставил её собственный муж, который на самом деле был жив-здоров и прекрасно себя чувствовал. Однако, он забыл принять во внимание, на что способна Либби, когда её вероломно предают. Срок закончился, и она отправляется восстанавливать справедливость. А вслед за Либби устремляется офицер по надзору за выпущенными на свободу заключёнными…

Раздача группы: Изображение

Качество: HDTVRip
Формат: MKV
Видео кодек: H.264
Аудио кодек: AC3 (Dolby Digital)
Видео: 1280x544, H264, 25 fps, ~ 4685 Kbps
Аудио #1: Русский: AC3, 6 ch, 384 kbps
Аудио #2: Английский: AC3, 6 ch, 384 kbps
Субтитры: Английские

MediaInfo
Общее
Уникальный идентификатор : 198016773330992774154718003848931766911 (0x94F8A4B0F0F8A321BEACABAA44D8F27F)
Полное имя : \\MyBookLive\Public\WWW\TR-Downloads\Double.Jeopardy.1999.HDTV.720p.AC3.x264-CGInfo.mkv
Формат : Matroska
Версия формата : Version 1
Размер файла : 3,99 Гбайт
Продолжительность : 1 ч. 40 м.
Общий поток : 5673 Кбит/сек
Дата кодирования : UTC 2009-02-25 20:37:07
Программа кодирования : mkvmerge v2.4.1 ('Use Me') built on Dec 5 2008 18:30:05
Библиотека кодирования : libebml v0.7.7 + libmatroska v0.8.1

Видео
Идентификатор : 1
Формат : AVC
Формат/Информация : Advanced Video Codec
Профиль формата : High@L4.1
Параметр CABAC формата : Да
Параметр ReFrames формата : 5 кадров
Идентификатор кодека : V_MPEG4/ISO/AVC
Продолжительность : 1 ч. 40 м.
Битрейт : 4900 Кбит/сек
Ширина : 1280 пикселей
Высота : 544 пикселя
Соотношение сторон : 2,35:1
Частота кадров : 25,000 кадров/сек
Цветовое пространство : YUV
Субдискретизация насыщенности : 4:2:0
Битовая глубина : 8 бит
Тип развёртки : Прогрессивная
Бит/(Пиксели*Кадры) : 0.281
Размер потока : 3,37 Гбайт (84%)
Библиотека кодирования : x264 core 60 r928M 4816918
Настройки программы : cabac=1 / ref=5 / deblock=1:-2:-2 / analyse=0x3:0x113 / me=umh / subme=6 / psy_rd=1.000000 / brdo=1 / mixed_ref=1 / me_range=20 / chroma_me=1 / trellis=2 / 8x8dct=1 / cqm=2 / deadzone=21,11 / chroma_qp_offset=0 / threads=6 / nr=0 / decimate=0 / mbaff=0 / bframes=16 / b_pyramid=1 / b_adapt=1 / b_bias=0 / direct=3 / wpredb=1 / bime=1 / keyint=250 / keyint_min=25 / scenecut=40(pre) / rc=2pass / bitrate=4900 / ratetol=1.0 / rceq='blurCplx^(1-qComp)' / qcomp=1.00 / qpmin=10 / qpmax=51 / qpstep=4 / cplxblur=20.0 / qblur=0.5 / ip_ratio=1.40 / pb_ratio=1.30 / aq=2:1.10
Язык : English
Default : Да
Forced : Нет

Аудио #1
Идентификатор : 2
Формат : AC-3
Формат/Информация : Audio Coding 3
Расширение режима : CM (complete main)
Параметр Endianness формата : Big
Идентификатор кодека : A_AC3
Продолжительность : 1 ч. 40 м.
Вид битрейта : Постоянный
Битрейт : 384 Кбит/сек
Каналы : 6 каналов
Расположение каналов : Front: L C R, Side: L R, LFE
Частота : 48,0 КГц
Битовая глубина : 16 бит
Метод сжатия : С потерями
Размер потока : 276 Мбайт (7%)
Заголовок : Russian - AC3, 6 ch, 48 kHz, 384 kbps
Язык : Russian
Default : Да
Forced : Нет

Аудио #2
Идентификатор : 3
Формат : AC-3
Формат/Информация : Audio Coding 3
Расширение режима : CM (complete main)
Параметр Endianness формата : Big
Идентификатор кодека : A_AC3
Продолжительность : 1 ч. 40 м.
Вид битрейта : Постоянный
Битрейт : 384 Кбит/сек
Каналы : 6 каналов
Расположение каналов : Front: L C R, Side: L R, LFE
Частота : 48,0 КГц
Битовая глубина : 16 бит
Метод сжатия : С потерями
Размер потока : 276 Мбайт (7%)
Заголовок : English - AC3, 6 ch, 48 kHz, 384 kbps
Язык : English
Default : Нет
Forced : Нет

Текст
Идентификатор : 4
Формат : UTF-8
Идентификатор кодека : S_TEXT/UTF8
Идентификатор кодека/Информация : UTF-8 Plain Text
Язык : English
Default : Да
Forced : Нет
Свернуть
Скриншоты
Изображение

Изображение

Изображение

Изображение
Свернуть
Не в сети
Профиль  
 Добавлено: 2012-09-13 21:53 (спустя 2 месяца 11 дней)
Стаж: 6 лет 6 месяцев
Сообщений: 175
Лайков: 2
Спасибо,за хорошее старое кино 90-ых.
Не в сети
Профиль  
Начать новую темуОтветить на тему  [ Сообщений: 2 ] 
Вы не можете начинать темы
Вы не можете отвечать на сообщения
Вы не можете редактировать свои сообщения
Вы не можете удалять свои сообщения