Правила форума

Здесь находятся раздачи, на которых не было полного источника (сида) более месяца.
Вы можете вернуть релиз в соответствующий раздел, для этого напишите нам в специальной теме и встаньте на раздачу.
Новые релизы, повторяющие релизы в архиве, повторами не считаются.
Начать новую темуОтветить на тему  [ 1 сообщение ] 
Сообщения
 Добавлено: 2012-02-09 12:23
Модератор релиз-группы
Аватара пользователя
Стаж: 9 лет 1 месяц
Возраст: 97
Сообщений: 11659
Спасибок: 6532
Лайков: 269
Дьявол и Дэниэл Уэбстер / The Devil and Daniel Webster

Изображение

Страна: США
Год выхода: 2004
Жанр: Фэнтези,Драма,Комедия
Продолжительность: 01:41:48
Перевод: Дублированный
Режиссер: Алек Болдуин

В ролях: Энтони Хопкинс, Алек Болдуин, Дженнифер Лав Хьюитт, Кен Мартон, Фрэнк Сиверо, Дэн Эйкройд, Грегг Белло, Ким Кэтролл, Джон Сэвидж, Аль Палагония

Описание: Начинающий Нью-Йоркский писатель заключает сделку с Дьяволом с тем, чтобы добиться литературного успеха и стать автором бестселлеров в обмен на свою душу по истечении десяти лет. Года пролетают как часы, и вскоре преуспевающий писатель вынужден молить о помощи Дэниэла Уэбстера, искусного адвоката и главу самой преуспевающей издательской фирмы в Нью-Йорке, чтобы избавиться от заключённой сделки. Результатом этого станет захватывающая, битва умов и речей на судебном процессе между Дьяволом и Дэниэлом Уэбстером, ставкой на котором будет душа писателя.
Изображение
Качество: BDRip 1080p
Формат: MKV
Видео: MPEG4 (AVC), 1920x1072, 23.976 fps, 8170 kbit/s
Аудио #1: AC3, 48 kHz, 6 ch, 448 kbit/s Rus
Аудио #2: DTS, 48 kHz, 6 ch, 1510 kbit/s Eng
Cубтитры: Pусские
скриншоты
Изображение

Изображение

Изображение

Изображение
Свернуть
Mi
Format : Matroska
Format version : Version 2
File size : 7.20 GiB
Duration : 1h 41mn
Overall bit rate : 10.1 Mbps
Encoded date : UTC 2012-01-31 22:03:13
Writing application : mkvmerge v4.6.0 ('Still Crazy After All These Years') built on Mar 10 2011 02:50:32
Writing library : libebml v1.2.0 + libmatroska v1.1.0

Video
ID : 1
Format : AVC
Format/Info : Advanced Video Codec
Format profile : High@L4.1
Format settings, CABAC : Yes
Format settings, ReFrames : 4 frames
Codec ID : V_MPEG4/ISO/AVC
Duration : 1h 41mn
Bit rate : 8 170 Kbps
Width : 1 920 pixels
Height : 1 072 pixels
Display aspect ratio : 16:9
Frame rate : 23.976 fps
Color space : YUV
Chroma subsampling : 4:2:0
Bit depth : 8 bits
Scan type : Progressive
Bits/(Pixel*Frame) : 0.166
Stream size : 5.66 GiB (79%)
Title : AiRLiNE - Shortcut To Happiness - 1080p
Writing library : x264 core 119 r2106 07efeb4
Encoding settings : cabac=1 / ref=4 / deblock=1:0:0 / analyse=0x3:0x133 / me=umh / subme=7 / psy=1 / psy_rd=1.00:0.00 / mixed_ref=1 / me_range=16 / chroma_me=1 / trellis=1 / 8x8dct=1 / cqm=0 / deadzone=21,11 / fast_pskip=0 / chroma_qp_offset=-2 / threads=12 / sliced_threads=0 / nr=0 / decimate=1 / interlaced=0 / bluray_compat=0 / constrained_intra=0 / bframes=3 / b_pyramid=2 / b_adapt=2 / b_bias=0 / direct=3 / weightb=1 / open_gop=0 / weightp=2 / keyint=250 / keyint_min=23 / scenecut=40 / intra_refresh=0 / rc_lookahead=60 / rc=2pass / mbtree=1 / bitrate=8170 / ratetol=1.0 / qcomp=0.60 / qpmin=10 / qpmax=51 / qpstep=4 / cplxblur=20.0 / qblur=0.5 / ip_ratio=1.40 / aq=1:1.00
Default : Yes
Forced : No

Audio #1
ID : 2
Format : AC-3
Format/Info : Audio Coding 3
Mode extension : CM (complete main)
Codec ID : A_AC3
Duration : 1h 41mn
Bit rate mode : Constant
Bit rate : 448 Kbps
Channel(s) : 6 channels
Channel positions : Front: L C R, Side: L R, LFE
Sampling rate : 48.0 KHz
Bit depth : 16 bits
Compression mode : Lossy
Stream size : 326 MiB (4%)
Title : RU-DUB
Language : Russian
Default : Yes
Forced : No

Audio #2
ID : 3
Format : DTS
Format/Info : Digital Theater Systems
Codec ID : A_DTS
Duration : 1h 41mn
Bit rate mode : Constant
Bit rate : 1 510 Kbps
Channel(s) : 6 channels
Channel positions : Front: L C R, Side: L R, LFE
Sampling rate : 48.0 KHz
Bit depth : 24 bits
Compression mode : Lossy
Stream size : 1.07 GiB (15%)
Title : EN-DTS 1510
Language : English
Default : No
Forced : No

Text
ID : 4
Format : UTF-8
Codec ID : S_TEXT/UTF8
Codec ID/Info : UTF-8 Plain Text
Language : Russian
Default : Yes
Forced : No

Menu
00:00:00.000 : en:00:00:00.000
00:09:56.012 : en:00:09:56.012
00:19:23.287 : en:00:19:23.287
00:30:06.471 : en:00:30:06.471
00:37:57.358 : en:00:37:57.358
00:50:06.003 : en:00:50:06.003
00:57:13.430 : en:00:57:13.430
01:07:10.235 : en:01:07:10.235
01:15:01.288 : en:01:15:01.288
01:24:56.466 : en:01:24:56.466
01:30:14.909 : en:01:30:14.909
01:38:03.211 : en:01:38:03.211

Свернуть
_________________
Изображение
Не в сети
Профиль  
Начать новую темуОтветить на тему  [ 1 сообщение ] 
Вы не можете начинать темы
Вы не можете отвечать на сообщения
Вы не можете редактировать свои сообщения
Вы не можете удалять свои сообщения