Правила форума

Здесь находятся раздачи, на которых не было полного источника (сида) более месяца.
Вы можете вернуть релиз в соответствующий раздел, для этого напишите нам в специальной теме и встаньте на раздачу.
Новые релизы, повторяющие релизы в архиве, повторами не считаются.
Начать новую темуОтветить на тему  [ Сообщений: 5 ] 
Сообщения
 Добавлено: 2013-07-14 04:18
Аватара пользователя
Стаж: 5 лет 4 месяца
Возраст: 26
Сообщений: 1658
Спасибок: 45809
Лайков: 69
Эффект колибри / Hummingbird


«Месть не дает облегчения»

Изображение

Изображение
Год выпуска: 2013
Страна: ИзображениеИзображение
Жанр: Боевик, триллер
Продолжительность: 01:40:23
Перевод: Дублированное [чистый звук]

Режиссёр: Стивен Найт

Сценарий: Стивен Найт

Продюсер: Гай Хили, Пол Уэбстер, Стюарт Форд, Стивен Сквилланте

Оператор: Крис Менгис

Композитор: Дарио Марианелли

Xудожник: Майкл Карлин, Стив Картер, Стюарт Кернс

В ролях: Джейсон Стэтхем, Агата Бузек, Сенем Темиз, Вики МакКлюр, Бенедикт Вонг, Ли Асквит-Коу, Ли Николас Харрис, Крис Коулин, Санти Скинелли, Дэвид Брэдли (III), Шиван Хьюлетт


Описание: Бывший спецназовец Джоуи Джонс пытается начать новую жизнь. Он соглашается работать на азиатскую мафию. Но проникая все глубже в криминальный мир родного города, он понимает, что не может спокойно смотреть на творящееся в нем беззаконие. Когда от рук бандитов погибает его возлюбленная Изабель, Джоуи решает восстановить справедливость. Он начинает расследование, которое ведет его на самый верх преступного синдиката.

Изображение
Изображение

Бюджет: $2 000 000
Сборы в России: $1 255 585
Сборы в США: $36 895

Мировая премьера: 9 мая 2013.
Российский прокат: 12 июня 2013, «Вольга»


Изображение
Качество: WEB-DL 1080p
Формат: MKV
Видео: MPEG4,AVC, 4063 Кбит/с, 1912x792
Аудио: Russian: MP3, 128 kb/s (2 ch) / English: AC3, 384 kb/s (6 ch)



"Трейлер"
Свернуть

"Скриншоты"
Изображение
Изображение
Изображение
Изображение
Свернуть

"MediaInfo"

Format : Matroska
Format version : Version 2
File size : 3.27 GiB
Duration : 1h 40mn
Overall bit rate : 4 666 Kbps
Movie name : ripped by CrazyHDSource.com
Encoded date : UTC 2013-07-13 21:09:15
Writing application : mkvmerge v5.8.0 ('No Sleep / Pillow') built on Sep 2 2012 15:37:04
Writing library : libebml v1.2.3 + libmatroska v1.3.0

Video
ID : 1
Format : AVC
Format/Info : Advanced Video Codec
Format profile : High@L4.0
Format settings, CABAC : Yes
Format settings, ReFrames : 5 frames
Codec ID : V_MPEG4/ISO/AVC
Duration : 1h 40mn
Bit rate : 4 061 Kbps
Width : 1 912 pixels
Height : 792 pixels
Display aspect ratio : 2.40:1
Frame rate mode : Constant
Frame rate : 23.976 fps
Color space : YUV
Chroma subsampling : 4:2:0
Bit depth : 8 bits
Scan type : Progressive
Bits/(Pixel*Frame) : 0.112
Stream size : 2.85 GiB (87%)
Title : ripped by CrazyHDSource.com
Language : English
Default : Yes
Forced : No
Color primaries : BT.709
Transfer characteristics : BT.709
Matrix coefficients : BT.709

Audio #1
ID : 2
Format : MPEG Audio
Format version : Version 1
Format profile : Layer 3
Mode : Joint stereo
Codec ID : A_MPEG/L3
Codec ID/Hint : MP3
Duration : 1h 40mn
Bit rate mode : Constant
Bit rate : 128 Kbps
Channel(s) : 2 channels
Sampling rate : 48.0 KHz
Compression mode : Lossy
Stream size : 91.9 MiB (3%)
Language : Russian
Default : Yes
Forced : No

Audio #2
ID : 3
Format : AC-3
Format/Info : Audio Coding 3
Mode extension : CM (complete main)
Format settings, Endianness : Big
Codec ID : A_AC3
Duration : 1h 40mn
Bit rate mode : Constant
Bit rate : 384 Kbps
Channel(s) : 6 channels
Channel positions : Front: L C R, Side: L R, LFE
Sampling rate : 48.0 KHz
Bit depth : 16 bits
Compression mode : Lossy
Stream size : 276 MiB (8%)
Language : English
Default : No
Forced : No

Text
ID : 4
Format : UTF-8
Codec ID : S_TEXT/UTF8
Codec ID/Info : UTF-8 Plain Text
Language : English
Default : No
Forced : No



Свернуть

"Важно"
Изображение
Свернуть
_________________
S.T.A.L.K.E.R.: Lost Alpha
Не в сети
Профиль  
 Добавлено: 2013-07-18 18:21 (спустя 4 дня)
Аватара пользователя
Стаж: 4 года 10 месяцев
Возраст: 29
Сообщений: 86
Лайков: 1
спасибо! это важно
Не в сети
Профиль  
 Добавлено: 2013-08-11 23:20 (спустя 24 дня)
Аватара пользователя
Стаж: 4 года 4 месяца
Возраст: 33
Сообщений: 178
Лайков: 3
как ????? фильм!!!!!! :) :)
Не в сети
Профиль  
 Добавлено: 2013-08-18 18:41 (спустя 6 дней)
Модератор
Аватара пользователя
Стаж: 8 лет 11 месяцев
Сообщений: 516
Спасибок: 26888
Лайков: 1
viewtopic.php?f=1750&t=515620
Не в сети
Профиль  
 Добавлено: 2013-08-18 19:45 (спустя 1 час 4 минуты)
Стаж: 6 лет 6 месяцев
Возраст: 41
Сообщений: 4
А где фильм ?????
Не в сети
Профиль  
Начать новую темуОтветить на тему  [ Сообщений: 5 ] 
Вы не можете начинать темы
Вы не можете отвечать на сообщения
Вы не можете редактировать свои сообщения
Вы не можете удалять свои сообщения