Правила форума

Здесь находятся раздачи, на которых не было полного источника (сида) более месяца.
Вы можете вернуть релиз в соответствующий раздел, для этого напишите нам в специальной теме и встаньте на раздачу.
Новые релизы, повторяющие релизы в архиве, повторами не считаются.
Начать новую темуОтветить на тему  [ Сообщений: 6 ] 
Сообщения
 Добавлено: 2013-11-26 06:59
DVD Release Group
Аватара пользователя
Стаж: 7 лет 1 месяц
Сообщений: 3559
Спасибок: 247266
Лайков: 1018
Элизиум: Рай не на Земле

Elysium


Изображение


Год выпуска: 2013
Страна: США
Жанр: Фантастика, боевик, триллер, драма
Продолжительность: 01:49:05
Перевод: Профессиональный (полное дублирование)
Субтитры: Русские
Режиссер: Нил Бломкамп
В ролях: Мэтт Дэймон, Джоди Фостер, Брэндон Оре, Алиса Брага, Соня Брага, Хосе Пабло Кантильо, Шарлто Коупли, Клод Дюамель, Уильям Фихтнер, Эдриэн Холмс, Диего Луна, Майкл Мэндо, Вагнер Мора, Карли Поуп, Майкл Шэнкс, Талиса Сото, Фаран Тахир
Описание: В 2154 году существует два класса людей: очень богатые, живущие на чистой, созданной руками человека, космической станции под названием Элизиум и остальные, живущие на перенаселённой разрушенной Земле. Безжалостный правительственный чиновник Министр Роудс не остановится ни перед чем для применения анти-иммиграционных законов и сохранения роскошного образа жизни граждан Элизиума. Когда неудачника Макса загоняют в угол, он соглашается взять на себя сложную миссию, которая в случае успеха не только спасёт ему жизнь, но и может привести к равенству этих поляризованных миров.
Изображение
Качество: BDRip 1080p
Формат: MKV
Видео кодек: H.264
Аудио кодек: AC3, DTS
Видео: 1920x804 23.98fps 11,1Мбит/сек
Аудио:
Audio Rus: 48kHz 6ch 448kbps
Audio Eng: 48kHz 6ch 1510kbps
"MediaInfo"
Формат : Matroska
Версия формата : Version 2
Размер файла : 10,2 Гбайт
Продолжительность : 1 ч. 49 м.
Общий поток : 13,4 Мбит/сек
Дата кодирования : UTC 2013-11-25 21:27:27
Программа кодирования : mkvmerge v6.3.0 ('You can't stop me!') built on Jun 28 2013 20:09:41
Библиотека кодирования : libebml v1.3.0 + libmatroska v1.4.0

Видео
Идентификатор : 1
Формат : AVC
Формат/Информация : Advanced Video Codec
Профиль формата : High@L4.1
Параметр CABAC формата : Да
Параметр ReFrames формата : 5 кадров
Идентификатор кодека : V_MPEG4/ISO/AVC
Продолжительность : 1 ч. 49 м.
Битрейт : 11,1 Мбит/сек
Ширина : 1920 пикселей
Высота : 804 пикселя
Соотношение сторон : 2,40:1
Режим частоты кадров : Постоянный
Частота кадров : 23,976 кадра/сек
Цветовое пространство : YUV
Субдискретизация насыщенности : 4:2:0
Битовая глубина : 8 бит
Тип развёртки : Прогрессивная
Бит/(Пиксели*Кадры) : 0.301
Размер потока : 8,53 Гбайт (83%)
Язык : English
Default : Да
Forced : Нет

Аудио #1
Идентификатор : 2
Формат : AC-3
Формат/Информация : Audio Coding 3
Расширение режима : CM (complete main)
Параметр Endianness формата : Big
Идентификатор кодека : A_AC3
Продолжительность : 1 ч. 49 м.
Вид битрейта : Постоянный
Битрейт : 448 Кбит/сек
Каналы : 6 каналов
Расположение каналов : Front: L C R, Side: L R, LFE
Частота : 48,0 КГц
Битовая глубина : 16 бит
Метод сжатия : С потерями
Размер потока : 351 Мбайт (3%)
Язык : Russian
Default : Да
Forced : Нет

Аудио #2
Идентификатор : 3
Формат : DTS
Формат/Информация : Digital Theater Systems
Режим : 16
Параметр Endianness формата : Big
Идентификатор кодека : A_DTS
Продолжительность : 1 ч. 49 м.
Вид битрейта : Постоянный
Битрейт : 1509 Кбит/сек
Каналы : 6 каналов
Расположение каналов : Front: L C R, Side: L R, LFE
Частота : 48,0 КГц
Битовая глубина : 24 бит
Метод сжатия : С потерями
Размер потока : 1,16 Гбайт (11%)
Язык : English
Default : Нет
Forced : Нет

Текст #1
Идентификатор : 4
Формат : UTF-8
Идентификатор кодека : S_TEXT/UTF8
Идентификатор кодека/Информация : UTF-8 Plain Text
Язык : Russian
Default : Да
Forced : Нет

Текст #2
Идентификатор : 5
Формат : UTF-8
Идентификатор кодека : S_TEXT/UTF8
Идентификатор кодека/Информация : UTF-8 Plain Text
Язык : Russian
Default : Нет
Forced : Нет

Меню
00:00:00.000 : en:00:00:00.000
00:07:02.589 : en:00:07:02.589
00:11:59.344 : en:00:11:59.344
00:19:27.625 : en:00:19:27.625
00:25:34.825 : en:00:25:34.825
00:30:02.342 : en:00:30:02.342
00:39:22.068 : en:00:39:22.068
00:57:43.960 : en:00:57:43.960
01:00:59.197 : en:01:00:59.197
01:04:09.637 : en:01:04:09.637
01:07:22.664 : en:01:07:22.664
01:10:34.147 : en:01:10:34.147
01:16:59.865 : en:01:16:59.865
01:22:50.132 : en:01:22:50.132
01:30:19.914 : en:01:30:19.914
01:35:44.530 : en:01:35:44.530
Свернуть

"Скриншоты"
Изображение
Изображение
Изображение
Изображение
Изображение
Изображение
Свернуть

Раздача группы:
Изображение
Не в сети
Профиль  
 Добавлено: 2013-11-26 20:00 (спустя 13 часов)
Аватара пользователя
Стаж: 7 лет
Возраст: 30
Сообщений: 507
Спасибок: 1931
В целом не плохо, но концовка, я бы даже сказал последняя 1/3 могла бы быть поинтереснее, фееричнее что ли
_________________
Изображение
Не в сети
Профиль  
 Добавлено: 2013-11-26 20:28 (спустя 27 минут)
Аватара пользователя
Стаж: 4 года 8 месяцев
Сообщений: 138
ну что стесняемся??раздаём раздаём :a_g_a:
Не в сети
Профиль  
 Добавлено: 2013-11-26 21:16 (спустя 47 минут)
Top-seeder
Аватара пользователя
Стаж: 6 лет 5 месяцев
Сообщений: 313
заценим , посмотрим :) спасибо !
_________________
скорость
Изображение
Свернуть
Не в сети
Профиль  
 Добавлено: 2013-11-27 17:14 (спустя 19 часов)
Модератор
Аватара пользователя
Стаж: 7 лет 9 месяцев
Сообщений: 4521
Спасибок: 112856
Лайков: 583
nntt/zarubejnoe-kino-hd-video-f1750/elizium-ray-ne-na-zemle-elysium-nil-blomkamp-t521932.html
Не в сети
Профиль  
 Добавлено: 2013-12-16 00:28 (спустя 18 дней)
Стаж: 2 года 11 месяцев
Сообщений: 9
Чёт не очень мне он понравился(
Не в сети
Профиль  
Начать новую темуОтветить на тему  [ Сообщений: 6 ] 
Вы не можете начинать темы
Вы не можете отвечать на сообщения
Вы не можете редактировать свои сообщения
Вы не можете удалять свои сообщения