Правила форума

Здесь находятся раздачи, на которых не было полного источника (сида) более месяца.
Вы можете вернуть релиз в соответствующий раздел, для этого напишите нам в специальной теме и встаньте на раздачу.
Новые релизы, повторяющие релизы в архиве, повторами не считаются.
Начать новую темуОтветить на тему  [ Сообщений: 5 ] 
Сообщения
 Добавлено: 2013-07-04 00:02
DVD Release Group
Аватара пользователя
Стаж: 7 лет 1 месяц
Сообщений: 3569
Спасибок: 247804
Лайков: 1020
Форсаж 6

Fast & Furious 6


Изображение


Год выпуска: 2013
Страна: США
Жанр: Боевик, триллер, драма, криминал
Продолжительность: 02:10:20
Перевод: Профессиональный (полное дублирование)
Режиссер: Джастин Лин
В ролях: Вин Дизель, Дуэйн Джонсон, Пол Уокер, Люк Эванс, Мишель Родригес, Джина Карано, Джордана Брюстер, Эльса Патаки, Гал Гадот, Тайрез Гибсон, Cанг Кенг, Лудакрис, Джо Таслим, Пол Блэкуэлл
Описание: После того как Доминик и Брайн побывали в Рио, где они ограбили и свергли империю вора в законе, их команда получила 100 миллионов, и наши герои оказались разбросаны по всему миру. Но их привычка вечно жить в бегах не даёт им покоя. Между тем, Хоббс отслеживал организацию смертельно опасных наёмников-водителей по двенадцати странам. Единственный способ остановить эту криминальную группу — это превзойти их на улицах, поэтому Хоббс просит Дома собрать его элитную команду в Лондоне. За это он обещает полное помилование для Доминика и его друзей, чтобы они смогли наконец вернуться домой к своей семье.
Изображение
Sample:
http://www.multiupload.nl/2PVSBYNINI
Качество: WEB-DL 720p
Формат: MKV
Видео кодек: H.264
Аудио кодек: AC3
Видео: 1280x542 23.98fps 4137kbps
Аудио: 48kHz 6ch 384kbps
"MediaInfo"
Формат : Matroska
Версия формата : Version 2
Размер файла : 4,19 Гбайт
Продолжительность : 2 ч. 10 м.
Общий поток : 4613 Кбит/сек
Дата кодирования : UTC 2013-07-03 19:48:27
Программа кодирования : mkvmerge v5.2.0 ('I can't explain') built on Dec 18 2011 18:12:03
Библиотека кодирования : libebml v1.2.3 + libmatroska v1.3.0

Видео
Идентификатор : 1
Формат : AVC
Формат/Информация : Advanced Video Codec
Профиль формата : Main@L3.1
Параметр CABAC формата : Нет
Параметр ReFrames формата : 2 кадра
Режим смешивания : Header stripping
Идентификатор кодека : V_MPEG4/ISO/AVC
Продолжительность : 2 ч. 10 м.
Битрейт : 4137 Кбит/сек
Ширина : 1280 пикселей
Высота : 542 пикселя
Соотношение сторон : 2,35:1
Частота кадров : 23,976 кадра/сек
Цветовое пространство : YUV
Субдискретизация насыщенности : 4:2:0
Битовая глубина : 8 бит
Тип развёртки : Прогрессивная
Бит/(Пиксели*Кадры) : 0.249
Размер потока : 3,76 Гбайт (90%)
Язык : English
Default : Да
Forced : Нет
Основные цвета : BT.709-5, BT.1361, IEC 61966-2-4, SMPTE RP177
Характеристики трансфера : BT.709-5, BT.1361
Коэффициенты матрицы : BT.709-5, BT.1361, IEC 61966-2-4 709, SMPTE RP177

Аудио
Идентификатор : 2
Формат : AC-3
Формат/Информация : Audio Coding 3
Расширение режима : CM (complete main)
Режим смешивания : Header stripping
Идентификатор кодека : A_AC3
Продолжительность : 2 ч. 10 м.
Вид битрейта : Постоянный
Битрейт : 384 Кбит/сек
Каналы : 6 каналов
Расположение каналов : Front: L C R, Side: L R, LFE
Частота : 48,0 КГц
Битовая глубина : 16 бит
Метод сжатия : С потерями
Размер потока : 357 Мбайт (8%)
Язык : Russian
Default : Да
Forced : Да

Меню
00:00:00.000 : en:1
00:04:22.000 : en:2
00:10:21.000 : en:3
00:15:37.000 : en:4
00:19:20.000 : en:5
00:24:34.000 : en:6
00:30:25.000 : en:7
00:36:31.000 : en:8
00:43:45.000 : en:9
00:50:23.000 : en:10
00:56:26.000 : en:11
01:04:09.000 : en:12
01:09:30.000 : en:13
01:18:29.000 : en:14
01:24:56.000 : en:15
01:34:09.000 : en:16
01:41:04.000 : en:17
01:47:44.000 : en:18
01:56:54.000 : en:19
02:01:40.000 : en:20
Свернуть

"Скриншоты"
Изображение
Изображение
Изображение
Свернуть


Последний раз редактировалось rastor 2013-07-04 05:28, всего редактировалось 2 раз(а).
Не в сети
Профиль  
 Добавлено: 2013-07-04 00:37 (спустя 34 минуты)
Аватара пользователя
Стаж: 5 лет 3 месяца
Сообщений: 201
Ух ты!!! Скачаю обязательно,потому что моой самый любимый фильм "Форсаж"!!! :co_ol: :co_ol: :co_ol: Качество HD я надеюсь? (просто очень хорошие скрины)
Не в сети
Профиль  
 Добавлено: 2013-07-04 00:42 (спустя 4 минуты)
Модератор
Аватара пользователя
Стаж: 8 лет 7 месяцев
Сообщений: 4965
Спасибок: 110255
Лайков: 18
Скоро 1080 будет :)
_________________
Изображение Изображение Изображение
Билайн / АДС добавляйте ретрекер, чтобы качать на скорости 100 Мбит/с
Cкрытый текст
Изображение
Свернуть
Не в сети
Профиль  
 Добавлено: 2013-07-17 07:26 (спустя 13 дней)
Стаж: 6 лет 2 месяца
Сообщений: 15
самая лучшая серия!
Не в сети
Профиль  
 Добавлено: 2013-09-16 18:04 (спустя 1 месяц 30 дней)
Модератор
Аватара пользователя
Стаж: 8 лет 11 месяцев
Сообщений: 516
Спасибок: 26888
Лайков: 1
zarubejnoe-kino-hd-video-f1750/forsaj-6-fast-furious-6-djastin-lin-justin-lin-r5-t517606.html
Не в сети
Профиль  
Начать новую темуОтветить на тему  [ Сообщений: 5 ] 
Вы не можете начинать темы
Вы не можете отвечать на сообщения
Вы не можете редактировать свои сообщения
Вы не можете удалять свои сообщения