Правила форума

Здесь находятся раздачи, на которых не было полного источника (сида) более месяца.
Вы можете вернуть релиз в соответствующий раздел, для этого напишите нам в специальной теме и встаньте на раздачу.
Новые релизы, повторяющие релизы в архиве, повторами не считаются.
Начать новую темуОтветить на тему  [ Сообщений: 8 ] 
Сообщения
 Добавлено: 2013-09-05 18:55
Руководитель релиз-группы
Аватара пользователя
Стаж: 7 лет 2 месяца
Возраст: 4
Сообщений: 5213
Спасибок: 19350
Лайков: 2312
Изображение


«Все дороги принадлежат им»

Изображение

Изображение
Год выпуска: 2013
Страна: Изображение
Жанр: Боевик, триллер, драма, криминал
Продолжительность: 02:11:02
Перевод: Дублированный [Лицензия]

Режиссёр: Джастин Лин

Сценарий: Крис Морган, Гэри Скотт Томпсон

Продюсер: Вин Дизель, Нил Х. Мориц, Клэйтон Таунсенд, Аманда Коэн, Саманта Винсент

Оператор: Стивен Ф. Уиндон

Композитор: Лукас Видал

Xудожник: Ян Рулфс, Гай Брэдли, Тоби Бриттон

В ролях: Вин Дизель, Пол Уокер, Дуэйн Джонсон , Мишель Родригес , Джейсон Стэйтем , Люк Эванс, Джина Карано, Эльза Патаки, Джордана Брюстер, Санг Кенг, Галь Гадот, Тайриз Гибсон, Лудакрис, Джо Таслим, Алистер МакНаб, Дэнис Хорошко, Марк Бэдхэм, Бао Тию, Леон Корбин, Виктор Гарднер, Клара Пэджет, Пойнтон, Сьёнг Лун Чун, Джеймс Хэа, Глен Стэнуэй, Льюис Джеймс, Джоаккино Джим Куффаро, Алекс Мартин, Дэвид Аджала, Стивен Маркус



Описание: После того, как Дом и Брайн были в Рио и ограбили, и свергли империю вора в законе, и их команда получила 100 миллионов, наши герои оказались разбросаны по всему миру. Но их не способность вернуться домой и вечно жить в бегах, сделала их жизнь неполной. Между тем, Хоббс отслеживал организацию смертельно опасных наемников-водителей по двенадцати странам, чьим вдохновителем и вторым-в-команде стала любовь Дома, которую считали мертвой, Летти. Единственный способ остановить криминальный наряд, это превосходить их на улицах, поэтому Хоббс спрашивает Дома, сможет ли собраться его элитная команда в Лондоне. Оплата? Полное помилование для всех, чтобы они смогли вернуться домой к своей семье

Изображение
ИзображениеИзображение

Бюджет: $160 000 000
Сборы в России: $34 289 052
Сборы в США: $238 675 730
Сборы в Мире: $787 621 956

Мировая премьера: 7 мая 2013
Российский прокат: 23 мая 2013, «UPI»

Релиз на DVD:26 сентября 2013, «Двадцатый Век Фокс СНГ»
Релиз на Blu-Ray:26 сентября 2013, «Двадцатый Век Фокс СНГ»

Изображение
Качество: BDRip (1080p)
Видео: MPEG-4 AVC, 11.1 Мбит/с, 1920x816
Аудио: Русский (AC3, 6 ch, 384 Кбит/с), английский (DTS, 6 ch, 1510 Кбит/с), (AC3, 2 ch, 192 Кбит/с)


MI
Общее
Уникальный идентификатор : 187246706202955807525379311192968327039 (0x8CDE67627A89CAA8B15B858B71A8EF7F)
Полное имя : C:\загрузки\Fast.and.Furious.6.2013.EXTENDED.1080p.BluRay.Rus.2xEng.HDCLUB.mkv
Формат : Matroska
Версия формата : Version 2
Размер файла : 12,0 Гбайт
Продолжительность : 2 ч. 11 м.
Общий поток : 13,1 Мбит/сек
Название фильма : Fast & Furious 6 (2013) [EXTENDED] - Release for HDCLUB
Дата кодирования : UTC 2013-09-03 16:38:45
Программа кодирования : mkvmerge v3.4.0 ('Rapunzel') built on May 15 2010 09:38:20
Библиотека кодирования : libebml v0.8.0 + libmatroska v0.9.0

Видео
Идентификатор : 1
Формат : AVC
Формат/Информация : Advanced Video Codec
Профиль формата : High@L4.1
Параметр CABAC формата : Да
Параметр ReFrames формата : 5 кадров
Идентификатор кодека : V_MPEG4/ISO/AVC
Продолжительность : 2 ч. 11 м.
Битрейт : 11,1 Мбит/сек
Ширина : 1920 пикселей
Высота : 816 пикселей
Соотношение сторон : 2,35:1
Режим частоты кадров : Постоянный
Частота кадров : 23,976 кадра/сек
Цветовое пространство : YUV
Субдискретизация насыщенности : 4:2:0
Битовая глубина : 8 бит
Тип развёртки : Прогрессивная
Бит/(Пиксели*Кадры) : 0.294
Размер потока : 9,88 Гбайт (82%)
Заголовок : Fast & Furious 6 (2013) [EXTENDED] - Release for HDCLUB
Библиотека кодирования : x264 core 138 r2356 a1d3d17
Настройки программы : cabac=1 / ref=5 / deblock=1:-3:-3 / analyse=0x3:0x113 / me=umh / subme=10 / psy=1 / psy_rd=1.00:0.05 / mixed_ref=1 / me_range=32 / chroma_me=1 / trellis=2 / 8x8dct=1 / cqm=0 / deadzone=21,11 / fast_pskip=0 / chroma_qp_offset=-2 / threads=18 / lookahead_threads=1 / sliced_threads=0 / nr=0 / decimate=1 / interlaced=0 / bluray_compat=0 / constrained_intra=0 / bframes=5 / b_pyramid=2 / b_adapt=2 / b_bias=0 / direct=3 / weightb=1 / open_gop=0 / weightp=2 / keyint=250 / keyint_min=23 / scenecut=40 / intra_refresh=0 / rc=2pass / mbtree=0 / bitrate=11056 / ratetol=1.0 / qcomp=0.70 / qpmin=0 / qpmax=69 / qpstep=4 / cplxblur=20.0 / qblur=0.5 / ip_ratio=1.40 / pb_ratio=1.30 / aq=2:1.00
Язык : English
Default : Да
Forced : Нет

Аудио #1
Идентификатор : 2
Формат : AC-3
Формат/Информация : Audio Coding 3
Расширение режима : CM (complete main)
Параметр Endianness формата : Big
Идентификатор кодека : A_AC3
Продолжительность : 2 ч. 11 м.
Вид битрейта : Постоянный
Битрейт : 384 Кбит/сек
Каналы : 6 каналов
Расположение каналов : Front: L C R, Side: L R, LFE
Частота : 48,0 КГц
Битовая глубина : 16 бит
Метод сжатия : С потерями
Размер потока : 360 Мбайт (3%)
Заголовок : AC3 5.1 @ 384 kbps - DUB, iTunes
Язык : Russian
Default : Да
Forced : Нет

Аудио #2
Идентификатор : 3
Формат : DTS
Формат/Информация : Digital Theater Systems
Режим : 16
Параметр Endianness формата : Big
Идентификатор кодека : A_DTS
Продолжительность : 2 ч. 11 м.
Вид битрейта : Постоянный
Битрейт : 1509 Кбит/сек
Каналы : 6 каналов
Расположение каналов : Front: L C R, Side: L R, LFE
Частота : 48,0 КГц
Битовая глубина : 24 бит
Метод сжатия : С потерями
Задержка видео : 11 мс.
Размер потока : 1,38 Гбайт (11%)
Заголовок : DTS 5.1 @ 1536 kbps
Язык : English
Default : Нет
Forced : Нет

Аудио #3
Идентификатор : 4
Формат : AC-3
Формат/Информация : Audio Coding 3
Профиль формата : Dolby Digital
Расширение режима : CM (complete main)
Параметр Endianness формата : Big
Идентификатор кодека : A_AC3
Продолжительность : 2 ч. 11 м.
Вид битрейта : Постоянный
Битрейт : 192 Кбит/сек
Каналы : 2 канала
Расположение каналов : Front: L R
Частота : 48,0 КГц
Битовая глубина : 16 бит
Метод сжатия : С потерями
Размер потока : 180 Мбайт (1%)
Заголовок : AC3 2.0 @ 192 kbps - Director's Commentary
Язык : English
Default : Нет
Forced : Нет

Текст #1
Идентификатор : 5
Формат : UTF-8
Идентификатор кодека : S_TEXT/UTF8
Идентификатор кодека/Информация : UTF-8 Plain Text
Заголовок : Forced, iTunes
Язык : Russian
Default : Да
Forced : Нет

Текст #2
Идентификатор : 6
Формат : UTF-8
Идентификатор кодека : S_TEXT/UTF8
Идентификатор кодека/Информация : UTF-8 Plain Text
Заголовок : iTunes
Язык : Russian
Default : Нет
Forced : Нет

Текст #3
Идентификатор : 7
Формат : UTF-8
Идентификатор кодека : S_TEXT/UTF8
Идентификатор кодека/Информация : UTF-8 Plain Text
Язык : English
Default : Нет
Forced : Нет

Меню
00:00:00.000 : en:00:00:00.000
00:04:21.011 : en:00:04:21.011
00:10:19.118 : en:00:10:19.118
00:15:35.268 : en:00:15:35.268
00:19:18.574 : en:00:19:18.574
00:24:32.721 : en:00:24:32.721
00:30:23.405 : en:00:30:23.405
00:36:28.478 : en:00:36:28.478
00:44:01.305 : en:00:44:01.305
00:50:50.255 : en:00:50:50.255
00:56:54.327 : en:00:56:54.327
01:04:54.057 : en:01:04:54.057
01:10:14.293 : en:01:10:14.293
01:19:13.457 : en:01:19:13.457
01:25:41.178 : en:01:25:41.178
01:34:53.771 : en:01:34:53.771
01:41:48.561 : en:01:41:48.561
01:48:31.838 : en:01:48:31.838
01:57:48.812 : en:01:57:48.812
02:03:04.418 : en:02:03:04.418
Свернуть

"Трейлер"
Свернуть

"Скриншоты"
Изображение
Изображение
Изображение
Свернуть

"Важно"
Изображение
Свернуть
_________________
Изображение

Изображение
 di-ys1 и rotametr нравится это.
Не в сети
Профиль  
 Добавлено: 2013-09-05 21:26 (спустя 2 часа 31 минута)
Стаж: 8 лет 7 месяцев
Возраст: 38
Сообщений: 26
В таком качестве посмотрю!
Не в сети
Профиль  
 Добавлено: 2013-09-06 06:22 (спустя 8 часов)
Аватара пользователя
Стаж: 9 лет
Сообщений: 167
Спасибок: 38
пож вылож в фул ашди
Не в сети
Профиль  
 Добавлено: 2013-09-06 12:50 (спустя 6 часов)
Аватара пользователя
Стаж: 7 лет 2 месяца
Сообщений: 16
Спасибок: 24
Благодарю!
Не в сети
Профиль  
 Добавлено: 2013-09-07 13:26 (спустя 1 день)
Стаж: 7 лет 5 месяцев
Сообщений: 25
Выложите пожалуйста в ещё более лучшем качестве!)
Не в сети
Профиль  
 Добавлено: 2013-09-07 20:41 (спустя 7 часов)
Кинокомментатор
Аватара пользователя
Стаж: 9 лет 1 месяц
Сообщений: 1332
Лайков: 54
хорошее кино в духе форсажа!) именно в духе!) стоит ли смотреть? ну как очередную серию да, как что то новое - нет! в общем средняя оценка 7/10 больше не тянет ;-)
_________________
Я ВКонтакте
Не в сети
Профиль  
 Добавлено: 2013-09-16 18:03 (спустя 8 дней)
Модератор
Аватара пользователя
Стаж: 8 лет 11 месяцев
Сообщений: 516
Спасибок: 26888
Лайков: 1
zarubejnoe-kino-hd-video-f1750/forsaj-6-fast-furious-6-djastin-lin-justin-lin-r5-t517606.html
Не в сети
Профиль  
 Добавлено: 2013-12-16 00:28 (спустя 2 месяца 29 дней)
Стаж: 2 года 11 месяцев
Сообщений: 9
Суперский фильмец!!!!
Не в сети
Профиль  
Начать новую темуОтветить на тему  [ Сообщений: 8 ] 
Вы не можете начинать темы
Вы не можете отвечать на сообщения
Вы не можете редактировать свои сообщения
Вы не можете удалять свои сообщения