Правила форума

Здесь находятся раздачи, на которых не было полного источника (сида) более месяца.
Вы можете вернуть релиз в соответствующий раздел, для этого напишите нам в специальной теме и встаньте на раздачу.
Новые релизы, повторяющие релизы в архиве, повторами не считаются.
Начать новую темуОтветить на тему  [ Сообщений: 3 ] 
Сообщения
 Добавлено: 2012-12-28 15:59
Стаж: 4 года 10 месяцев
Сообщений: 24
Спасибок: 9
Фрираннер / Freerunner

Изображение


Год выпуска: 2011
Страна: США (Strategic Film Partners)
Жанр: Боевик
Продолжительность: 01:27:46
Перевод: Любительский (двухголосый закадровый) + Оригинальная звуковая дорожка
Субтитры: Нет

Режиссёр: Лоуренс Силверштейн
В ролях: Шон Фэрис, Дэнни Дайер, Тэмер Хассан, Аманда Фуллер, Сеймур Кэссел, Мария Боннер, Кэйси Даркин, Филлип ДеВона, Джейсон Ботсфорд, Ребекка Да Коста
Описание: Беглец, скрываясь от преследователей, должен успеть добежать с одного конца города на другой, чтобы спасти себя и свою подружку. Его время ограничено бомбой вокруг шеи с обратным отсчетом. "Безумная гонка будет держать вас в напряжении все 1.5 часа"


Качество: BDRip, 1080p
Формат: MKV
Видео: 1920 x 816 (2.353) at 23.976 fps, AVC at 16,2 Мбит/сек
Аудио #1: AC-3 at 192 Кбит/сек,2 канала, 48,0 КГц,[RUS] [Любительский (двухголосый закадровый)]
Аудио #2: DTS at 1510 Кбит/сек,6 каналов, 48,0 КГц,[ENG] [Оригинальная звуковая дорожка]
Субтитры: Нет
mediainfo
Формат : Matroska
Версия формата : Version 2
Размер файла : 11,0 Гбайт
Продолжительность : 1 ч. 27 м.
Общий поток : 17,9 Мбит/сек
Дата кодирования : UTC 2011-10-13 02:05:16
Программа кодирования : mkvmerge v5.0.0 ('Die Wahre Liebe') built on Sep 25 2011 20:33:49
Библиотека кодирования : libebml v1.2.2 + libmatroska v1.3.0

Видео
Идентификатор : 1
Формат : AVC
Формат/Информация : Advanced Video Codec
Профиль формата : High@L4.1
Параметр CABAC формата : Да
Параметр ReFrames формата : 5 кадров
Идентификатор кодека : V_MPEG4/ISO/AVC
Продолжительность : 1 ч. 27 м.
Битрейт : 16,2 Мбит/сек
Ширина : 1920 пикселей
Высота : 816 пикселей
Соотношение сторон : 2,35:1
Частота кадров : 23,976 кадра/сек
Цветовое пространство : YUV
Субдискретизация насыщенности : 4:2:0
Битовая глубина : 8 бит
Тип развёртки : Прогрессивная
Бит/(Пиксели*Кадры) : 0.432
Размер потока : 9,73 Гбайт (89%)
Заголовок : FREERUNNER.2011
Библиотека кодирования : x264 core 116 r2074 2641b9e
Настройки программы : cabac=1 / ref=5 / deblock=1:-3:-3 / analyse=0x3:0x113 / me=umh / subme=10 / psy=1 / psy_rd=1.05:0.10 / mixed_ref=1 / me_range=32 / chroma_me=1 / trellis=2 / 8x8dct=1 / cqm=2 / deadzone=21,11 / fast_pskip=0 / chroma_qp_offset=-2 / threads=8 / sliced_threads=0 / nr=0 / decimate=1 / interlaced=0 / bluray_compat=0 / constrained_intra=0 / bframes=6 / b_pyramid=2 / b_adapt=2 / b_bias=0 / direct=3 / weightb=1 / open_gop=0 / weightp=2 / keyint=250 / keyint_min=23 / scenecut=40 / intra_refresh=0 / rc_lookahead=50 / rc=2pass / mbtree=1 / bitrate=16226 / ratetol=1.0 / qcomp=0.70 / qpmin=1 / qpmax=63 / qpstep=4 / cplxblur=20.0 / qblur=0.5 / vbv_maxrate=45000 / vbv_bufsize=40000 / nal_hrd=none / ip_ratio=1.40 / aq=2:0.80
Язык : English

Аудио #1
Идентификатор : 2
Формат : AC-3
Формат/Информация : Audio Coding 3
Расширение режима : CM (complete main)
Идентификатор кодека : A_AC3
Продолжительность : 1 ч. 27 м.
Вид битрейта : Постоянный
Битрейт : 192 Кбит/сек
Каналы : 2 канала
Расположение каналов : Front: L R
Частота : 48,0 КГц
Битовая глубина : 16 бит
Метод сжатия : С потерями
Размер потока : 121 Мбайт (1%)
Язык : Russian

Аудио #2
Идентификатор : 3
Формат : DTS
Формат/Информация : Digital Theater Systems
Идентификатор кодека : A_DTS
Продолжительность : 1 ч. 27 м.
Вид битрейта : Постоянный
Битрейт : 1510 Кбит/сек
Каналы : 6 каналов
Расположение каналов : Front: L C R, Side: L R, LFE
Частота : 48,0 КГц
Битовая глубина : 24 бит
Метод сжатия : С потерями
Размер потока : 948 Мбайт (8%)
Заголовок : DTS-CORE 1536K
Язык : English
Свернуть
Скриншоты
Изображение

Изображение

Изображение
Свернуть


Последний раз редактировалось Buck_Wild 2012-12-29 07:23, всего редактировалось 1 раз.
Не в сети
Профиль  
 Добавлено: 2012-12-28 20:23 (спустя 4 часа)
Руководитель релиз-группы
Аватара пользователя
Стаж: 7 лет 5 месяцев
Возраст: 31
Сообщений: 3407
Спасибок: 46729
Лайков: 5

Buck_Wild:

Качество: DVD5
BDRip, 1080p
Для DVD и HD-разделов необходимы развернутые технические данные:
Для HD: Отчет BDInfo→ (после нажатия кнопки «scan bitrates» и окончания сканирования) или MediaInfo→ ( весь текст из режима view (вид) → text (текст).) (под спойлером)
Для HD и HQRip-ов необходимы скриншоты в формате PNG, для остальных форматов PNG так же рекомендуется.

исправляем
Не в сети
Профиль  
 Добавлено: 2012-12-29 07:24 (спустя 11 часов)
Стаж: 4 года 10 месяцев
Сообщений: 24
Спасибок: 9
Как добавить дополнительную информацию?
Не в сети
Профиль  
Начать новую темуОтветить на тему  [ Сообщений: 3 ] 
Вы не можете начинать темы
Вы не можете отвечать на сообщения
Вы не можете редактировать свои сообщения
Вы не можете удалять свои сообщения