Правила форума

Здесь находятся раздачи, на которых не было полного источника (сида) более месяца.
Вы можете вернуть релиз в соответствующий раздел, для этого напишите нам в специальной теме и встаньте на раздачу.
Новые релизы, повторяющие релизы в архиве, повторами не считаются.
Начать новую темуОтветить на тему  [ 1 сообщение ] 
Сообщения
 Добавлено: 2013-03-31 14:29
Аватара пользователя
Стаж: 7 лет 4 месяца
Возраст: 28
Сообщений: 340
Спасибок: 4350
Лайков: 2


Гамбит / Gambit

«Искусная подделка. Идеальный план»


Изображение


Год выпуска: 2012
Страна: США
Жанр: Комедия, криминал
Продолжительность: 01:29:10
Перевод: Профессиональный (полное дублирование) чистый звук


Режиссер: Майкл Хоффман / Michael Hoffman
Сценарий: Итан Коэн, Джоэл Коэн
Продюсер: Майк Лобелл, Роб Пэрис, Адам Рипп
Композитор: Рольф Кент

В ролях: Колин Фёрт / Colin Firth, Кэмерон Диаз / Cameron Diaz, Алан Рикман / Alan Rickman, Стэнли Туччи / Stanley Tucci, Клорис Личмен / Cloris Leachman, Сенем Темиз / Senem Temiz, Анна Скеллерн / Anna Skellern,
Того Игава / Togo Igawa, Эрика ЛаРоуз / Erica LaRose


О фильме: История лондонского любителя искусств, задумавшего обмануть богатого коллекционера и заставить его купить фальшивую картину Моне. Для этого он договаривается с разбитной девахой из Техаса. Героиня не имеет никакого отношения к искусству — она работает на родео. Однако она будет выдавать себя за женщину, чей отец раздобыл картину в конце Второй мировой войны.


Изображение Изображение

Премьера (мир): 7 ноября 2012
Сборы в мире: $1 104 623
Премьера (РФ): 7 марта 2013
Сборы в России: $1 129 627


Качество: BDRip [1080p]
Формат: MKV
Видеокодек: AVC
Аудиокодек: AC-3
Видео: 1920x816 (2.35:1), 6 563 Kbps, 23.976 fps, AVC, x264, 0.175 bit/pixel
Аудио: 48.0 kHz, AC-3, 6ch 448kbps


Скриншоты
Изображение

Изображение

Изображение

Изображение
Свернуть



Знаете ли ВЫ, что...
    Дженнифер Энистон рассматривалась на роль, которую в итоге получила Кэмерон Диаз.

    Хью Грант, Сандра Буллок, Бен Кингсли изначально были приняты в проект на роли Гарри Дина, Пи Джей Пазновски и лорда Лайонела соответственно.
Свернуть



Media Info
Format : Matroska
Format version : Version 4 / Version 2
File size : 4.37 GiB
Duration : 1h 29mn
Overall bit rate : 7 015 Kbps
Encoded date : UTC 2013-03-28 19:26:13
Writing application : mkvmerge v6.1.0 ('Old Devil') built on Mar 2 2013 14:32:37
Writing library : libebml v1.3.0 + libmatroska v1.4.0

Video
ID : 1
Format : AVC
Format/Info : Advanced Video Codec
Format profile : High@L4.0
Format settings, CABAC : Yes
Format settings, ReFrames : 4 frames
Codec ID : V_MPEG4/ISO/AVC
Duration : 1h 29mn
Bit rate : 6 563 Kbps
Width : 1 920 pixels
Height : 816 pixels
Display aspect ratio : 2.35:1
Original display aspect ratio : 2.35:1
Frame rate mode : Constant
Frame rate : 23.976 fps
Color space : YUV
Chroma subsampling : 4:2:0
Bit depth : 8 bits
Scan type : Progressive
Bits/(Pixel*Frame) : 0.175
Stream size : 4.00 GiB (92%)
Writing library : x264 core 130 r2273 b3065e6
Encoding settings : cabac=1 / ref=3 / deblock=1:0:0 / analyse=0x3:0x133 / me=hex / subme=7 / psy=1 / psy_rd=1.00:0.00 / mixed_ref=1 / me_range=16 / chroma_me=1 / trellis=1 / 8x8dct=1 / cqm=0 / deadzone=21,11 / fast_pskip=1 / chroma_qp_offset=-2 / threads=6 / lookahead_threads=1 / sliced_threads=0 / nr=0 / decimate=1 / interlaced=0 / bluray_compat=0 / constrained_intra=0 / bframes=3 / b_pyramid=2 / b_adapt=1 / b_bias=0 / direct=1 / weightb=1 / open_gop=0 / weightp=2 / keyint=240 / keyint_min=23 / scenecut=40 / intra_refresh=0 / rc_lookahead=40 / rc=2pass / mbtree=1 / bitrate=6563 / ratetol=1.0 / qcomp=0.60 / qpmin=0 / qpmax=69 / qpstep=4 / cplxblur=20.0 / qblur=0.5 / ip_ratio=1.40 / aq=1:1.00
Language : English
Default : Yes
Forced : No

Audio
ID : 2
Format : AC-3
Format/Info : Audio Coding 3
Mode extension : CM (complete main)
Format settings, Endianness : Big
Codec ID : A_AC3
Duration : 1h 29mn
Bit rate mode : Constant
Bit rate : 448 Kbps
Channel(s) : 6 channels
Channel positions : Front: L C R, Side: L R, LFE
Sampling rate : 48.0 KHz
Bit depth : 16 bits
Compression mode : Lossy
Stream size : 286 MiB (6%)
Default : Yes
Forced : No
Свернуть



Приятного просмотра! Не забываем благодарить релизёра! :)


_________________
Вообще стало не совпадать: как хочется поступить и как правильно поступить. А хочется, чтобы было как правильно, но хочется, чтобы было, как хочется… И, что делать?!
Не в сети
Профиль  
Начать новую темуОтветить на тему  [ 1 сообщение ] 
Вы не можете начинать темы
Вы не можете отвечать на сообщения
Вы не можете редактировать свои сообщения
Вы не можете удалять свои сообщения