Правила форума

Здесь находятся раздачи, на которых не было полного источника (сида) более месяца.
Вы можете вернуть релиз в соответствующий раздел, для этого напишите нам в специальной теме и встаньте на раздачу.
Новые релизы, повторяющие релизы в архиве, повторами не считаются.
Начать новую темуОтветить на тему  [ Сообщений: 2 ] 
Сообщения
 Добавлено: 2011-12-22 01:19
Аватара пользователя
Стаж: 4 года 11 месяцев
Сообщений: 24
Спасибок: 357
Гениальный папа / Father of Invention

«Sometimes the best ideas are homegrown»

Изображение



Год выхода: 2010
Страна:США

Жанр:драма, комедия
Продолжительность: 01:33:13
Перевод: Дублированное

Режиссер: Трент Купер
Сценарий:Джонатан Д. Крэйн, Трент Купер
Продюсер:Кен Барбет, Джонатан Д. Крэйн, Джейсон Шавиччо, ...
Оператор:Стив Йедлин
Композитор:Ник Урата

В ролях: Кевин Спейси, Камилла Белль, Джонни Ноксвил, Хэзер Грэм, Вирджиния Мэдсен, Джон Стамос, Майкл Розенбаум, Крэйг Робинсон, Джек МакГи, Одра Мари.

Описание:Роберт Аксель, эксцентричный изобретатель, считает себя настоящим гуру. Но он теряет все в один миг, когда одно из его изобретений калечит тысячи покупателей. Его ждали тюрьма и 8 лет затворничества, после Аксель готов восстановить свое имя и свою многомиллионную империю. Но пока что ему нужно уговорить свою 22-летнюю дочь пустить его к себе в дом, что бы где-то жить.

Изображение

Pаздача группы:Изображение

Качество: BDRip 1080p
Формат: Mkv

Видео: MPEG4 Video (H264) 1920x800 23.98fps
Аудио 1: Dolby AC3 48000Hz stereo 384 Kbps
Аудио 2:Dolby AC3 48000Hz stereo 640 Kbps
Subtitle:English

Изображение

MediaInfo
General
Unique ID : 184888284481440873910066518957068822808 (0x8B1830375F64B3EABB6E95F06C02A918)
Complete name : E:\Download\Father.of.Invention.2010.D.BDRip.1080p.UNIONGANG.TV.mkv
Format : Matroska
Format version : Version 2
File size : 8.20 GiB
Duration : 1h 33mn
Overall bit rate : 12.6 Mbps
Encoded date : UTC 2011-12-20 21:04:49
Writing application : mkvmerge v3.3.0 ('Language') built on Mar 24 2010 14:59:24
Writing library : libebml v0.8.0 + libmatroska v0.9.0

Video
ID : 1
Format : AVC
Format/Info : Advanced Video Codec
Format profile : High@L4.1
Format settings, CABAC : Yes
Format settings, ReFrames : 4 frames
Codec ID : V_MPEG4/ISO/AVC
Duration : 1h 33mn
Bit rate : 11.6 Mbps
Width : 1 920 pixels
Height : 800 pixels
Display aspect ratio : 2.40:1
Frame rate : 23.976 fps
Color space : YUV
Chroma subsampling : 4:2:0
Bit depth : 8 bits
Scan type : Progressive
Bits/(Pixel*Frame) : 0.314
Stream size : 7.37 GiB (90%)
Writing library : x264 core 98 r1649 c54c47d
Encoding settings : cabac=1 / ref=4 / deblock=1:-3:-3 / analyse=0x3:0x113 / me=umh / subme=9 / psy=1 / psy_rd=1.10:0.00 / mixed_ref=1 / me_range=32 / chroma_me=1 / trellis=2 / 8x8dct=1 / cqm=0 / deadzone=21,11 / fast_pskip=0 / chroma_qp_offset=-4 / threads=12 / sliced_threads=0 / nr=0 / decimate=0 / interlaced=0 / constrained_intra=0 / bframes=6 / b_pyramid=2 / b_adapt=2 / b_bias=0 / direct=3 / weightb=1 / weightp=2 / keyint=250 / keyint_min=25 / scenecut=40 / intra_refresh=0 / rc_lookahead=48 / rc=2pass / mbtree=1 / bitrate=11576 / ratetol=1.0 / qcomp=0.60 / qpmin=10 / qpmax=51 / qpstep=4 / cplxblur=20.0 / qblur=0.5 / ip_ratio=1.40 / aq=1:0.80
Language : English
Default : No
Forced : No

Audio #1
ID : 2
Format : AC-3
Format/Info : Audio Coding 3
Mode extension : CM (complete main)
Codec ID : A_AC3
Duration : 1h 33mn
Bit rate mode : Constant
Bit rate : 384 Kbps
Channel(s) : 2 channels
Channel positions : Front: L R
Sampling rate : 48.0 KHz
Bit depth : 16 bits
Compression mode : Lossy
Stream size : 256 MiB (3%)
Language : Russian
Default : Yes
Forced : No

Audio #2
ID : 3
Format : AC-3
Format/Info : Audio Coding 3
Mode extension : CM (complete main)
Codec ID : A_AC3
Duration : 1h 33mn
Bit rate mode : Constant
Bit rate : 640 Kbps
Channel(s) : 6 channels
Channel positions : Front: L C R, Side: L R, LFE
Sampling rate : 48.0 KHz
Bit depth : 16 bits
Compression mode : Lossy
Stream size : 427 MiB (5%)
Language : English
Default : No
Forced : No

Text
ID : 4
Format : UTF-8
Codec ID : S_TEXT/UTF8
Codec ID/Info : UTF-8 Plain Text
Language : English
Default : Yes
Forced : No


Свернуть
Скриншоты
Изображение
Изображение
Изображение
Изображение

Свернуть
Не в сети
Профиль  
 Добавлено: 2011-12-28 22:54 (спустя 6 дней)
Аватара пользователя
Стаж: 6 лет 3 месяца
Возраст: 24
Сообщений: 89
Спасибок: 600
Лайков: 1
Отпишитесь как фильм???
_________________
Dante
Не в сети
Профиль  
Начать новую темуОтветить на тему  [ Сообщений: 2 ] 
Вы не можете начинать темы
Вы не можете отвечать на сообщения
Вы не можете редактировать свои сообщения
Вы не можете удалять свои сообщения