Правила форума

Здесь находятся раздачи, на которых не было полного источника (сида) более месяца.
Вы можете вернуть релиз в соответствующий раздел, для этого напишите нам в специальной теме и встаньте на раздачу.
Новые релизы, повторяющие релизы в архиве, повторами не считаются.
Начать новую темуОтветить на тему  [ Сообщений: 5 ] 
Сообщения
 Добавлено: 2014-10-21 11:23
RG-ELEKTRO
Аватара пользователя
Стаж: 2 года 3 месяца
Сообщений: 7928
Спасибок: 53773
Лайков: 3304
Геракл / Hercules



Изображение

Выпущено: США / Flynn Picture Company, Metro-Goldwyn-Mayer (MGM), Paramount Pictures, Radical Studios
Год выхода: 2014
Жанр: боевик, приключения, фэнтези
Продолжительность: 01:41:37
Озвучивание: Дублированное [звук с TS]
Примечание: EXTENDED - расширенная версия, длиннее театральной ~7 минут. Отсутствует около 7 минут перевода.

Режиссер: Бретт Рэтнер

В ролях: Дуэйн Джонсон, Аксель Хенни, Иэн МакШейн, Джон Хёрт, Руфус Сьюэлл, Ингрид Больсё Бердаль, Рис Ричи, Джозеф Файнс, Тобиас Зантельман, Питер Муллан

О фильме: Более тысячи лет назад измученная душа скиталась по Земле, полубог, получеловек — Геракл — могучий сын царя богов Зевса, совершив все 12 подвигов, потерял семью и теперь находит утешение только в кровавых битвах. За эти годы он собирает вокруг себя шестерых таких же потерянных воинов, единственным смыслом жизни для которых стали сражения и присутствие смертельной опасности. Эти мужчины и женщина никогда не задают вопрос, где, почему или с кем они идут сражаться; только, сколько им заплатят. Зная это, фракийский царь Котис нанимает этих воинов, чтобы они обучили его солдат и сделали из них самую сильную и великую армию всех времен.

Семпл || Изображение

Формат: MKV
Качество: WEB-DL 720p
Видео: 4071 Kb/s, 1280x532
Аудио: Russian: AC3, 192 Kb/s (2 ch) / English: AC3, 384 Kb/s (6 ch)
Субтитры: English

"MI"
Format : Matroska
Format version : Version 2
File size : 3.37 GiB
Duration : 1h 41mn
Overall bit rate : 4 741 Kbps
Encoded date : UTC 2014-10-21 06:27:14
Writing application : mkvmerge v7.2.0 ('On Every Street') 64bit built on Sep 13 2014 15:52:10
Writing library : libebml v1.3.0 + libmatroska v1.4.1
DURATION : 01:41:37.152000000
NUMBER_OF_FRAMES : 190536
NUMBER_OF_BYTES : 146331648
_STATISTICS_WRITING_APP : mkvmerge v7.2.0 ('On Every Street') 64bit built on Sep 13 2014 15:52:10
_STATISTICS_WRITING_DATE_UTC : 2014-10-21 06:27:14
_STATISTICS_TAGS : BPS DURATION NUMBER_OF_FRAMES NUMBER_OF_BYTES

Video
ID : 1
Format : AVC
Format/Info : Advanced Video Codec
Format profile : Main@L3.1
Format settings, CABAC : No
Format settings, ReFrames : 2 frames
Codec ID : V_MPEG4/ISO/AVC
Duration : 1h 41mn
Bit rate : 4 071 Kbps
Width : 1 280 pixels
Height : 532 pixels
Display aspect ratio : 2.40:1
Frame rate mode : Constant
Frame rate : 23.976 fps
Color space : YUV
Chroma subsampling : 4:2:0
Bit depth : 8 bits
Scan type : Progressive
Bits/(Pixel*Frame) : 0.249
Stream size : 2.89 GiB (86%)
Language : English
Default : Yes
Forced : No
Color primaries : BT.709
Transfer characteristics : BT.709
Matrix coefficients : BT.709

Audio #1
ID : 2
Format : AC-3
Format/Info : Audio Coding 3
Mode extension : CM (complete main)
Format settings, Endianness : Big
Codec ID : A_AC3
Duration : 1h 41mn
Bit rate mode : Constant
Bit rate : 192 Kbps
Channel(s) : 2 channels
Channel positions : Front: L R
Sampling rate : 48.0 KHz
Bit depth : 16 bits
Compression mode : Lossy
Stream size : 140 MiB (4%)
Language : Russian
Default : No
Forced : No

Audio #2
ID : 3
Format : AC-3
Format/Info : Audio Coding 3
Mode extension : CM (complete main)
Format settings, Endianness : Big
Codec ID : A_AC3
Duration : 1h 41mn
Bit rate mode : Constant
Bit rate : 384 Kbps
Channel(s) : 6 channels
Channel positions : Front: L C R, Side: L R, LFE
Sampling rate : 48.0 KHz
Bit depth : 16 bits
Compression mode : Lossy
Stream size : 279 MiB (8%)
Language : English
Default : No
Forced : No

Text
ID : 4
Format : UTF-8
Codec ID : S_TEXT/UTF8
Codec ID/Info : UTF-8 Plain Text
Language : English
Default : No
Forced : No

Menu
00:00:00.000 : en:1
00:08:12.000 : en:2
00:14:17.000 : en:3
00:23:40.000 : en:4
00:31:25.000 : en:5
00:41:14.000 : en:6
00:51:36.000 : en:7
00:57:33.000 : en:8
01:05:59.000 : en:9
01:16:09.000 : en:10
01:24:30.000 : en:11
01:34:25.000 : en:12
Свернуть
"Скриншоты"
Изображение
Изображение
Изображение


Свернуть
_________________
Не ищите меня в "ВКонтакте", в "Одноклассниках" меня нет - я на трекерах сижу!
 vitso нравится это.
Не в сети
Профиль  
 Добавлено: 2014-10-23 16:55 (спустя 2 дня 5 часов)
Стаж: 6 лет 10 месяцев
Сообщений: 3
нормально
Не в сети
Профиль  
 Добавлено: 2014-10-23 19:41 (спустя 2 часа 46 минут)
Аватара пользователя
Стаж: 4 года 8 месяцев
Сообщений: 347
Лайков: 6
Звук только секс, но качество - смотрибельно
Не в сети
Профиль  
 Добавлено: 2014-11-14 02:04 (спустя 21 день)
Стаж: 8 лет 9 месяцев
Сообщений: 12
фильм - трата времени... разочарован
Не в сети
Профиль  
 Добавлено: 2014-11-19 20:58 (спустя 5 дней)
RG-ELEKTRO
Аватара пользователя
Стаж: 2 года 3 месяца
Сообщений: 7928
Спасибок: 53773
Лайков: 3304
YesMan.
сочувствую :(
_________________
Не ищите меня в "ВКонтакте", в "Одноклассниках" меня нет - я на трекерах сижу!
Не в сети
Профиль  
Начать новую темуОтветить на тему  [ Сообщений: 5 ] 
Вы не можете начинать темы
Вы не можете отвечать на сообщения
Вы не можете редактировать свои сообщения
Вы не можете удалять свои сообщения