Правила форума

Здесь находятся раздачи, на которых не было полного источника (сида) более месяца.
Вы можете вернуть релиз в соответствующий раздел, для этого напишите нам в специальной теме и встаньте на раздачу.
Новые релизы, повторяющие релизы в архиве, повторами не считаются.
Начать новую темуОтветить на тему  [ Сообщений: 8 ] 
Сообщения
 Добавлено: 2014-04-06 19:34
Модератор
Аватара пользователя
Стаж: 8 лет 2 месяца
Возраст: 30
Сообщений: 3200
Спасибок: 2960
Лайков: 206
Геракл: Начало легенды / The Legend of Hercules

«Every man has a destiny»

Изображение


Название: Геракл: Начало легенды
Оригинальное название: The Legend of Hercules
Год выпуска: 2014
Страна:США, Болгария, Millennium Films
Жанр: боевик, фэнтези
Продолжительность: 1:38:38
Озвучивание: Дублированное [Чистый звук]
Субтитры: Английские
Режиссёр:Ренни Харлин
В ролях: Келлан Латс, Джая Уайсс, Скотт Эдкинс, Роксанна МакКи, Лайам Гэрриган, Лиам МакИнтайр, Раде Шербеджия, Джонатон Шек, Люк Ньюберри, Кеннет Крэнэм
Изображение
Описание фильма:
1200 г. до н. э. Древняя Греция. Прекрасная царица Алкмена попала под чары грозного бога Олимпа — Зевса и родила ему сына Геракла. При рождении ему было предсказано стать величайшим воином, который будет властвовать над народами и принесет мир и процветание своей стране. Но пока Геракл ничего не знает о своем предназначении. Он вырос прекрасным и сильным юношей. Он мечтает о любви принцессы Крита, Гебы, которая обещана в жены его брату. Когда Геракл узнает о своей великой миссии, он должен выбрать: сбежать со своей любовью или исполнить свое предназначение. Ему предстоит сразиться с кентавром, победить гигантов, выросших из зубов дракона, перехитрить богинь Судьбы, спасти свою возлюбленную Гебу и выйти на бой со своим злейшим врагом — сыном бога войны Ареса.
Изображение
Дата мировой премьеры: 8 января 2014

Качество: BDRip 720p
Формат: MKV
Видео кодек: AVC
Аудио кодек: AC3, DTS
Видео: 4703 Kb/s, 1280x538, 23.976 fps
Аудио: AC3, 48 KHz, 2 ch, 192 Kbps, CBR - Русский
Аудио: DTS, 48 KHz, 6 ch, 1510 Kbps, CBR - Английский
Изображение
ИзображениеИзображениеИзображение
THE LEGEND OF HERCULES - Official Trailer 2014

Свернуть

MediaInfo
General
Unique ID : 194901542189931985218625156854001070375 (0x92A0ABF003C5B4DBB86BCF981F6A7127)
Format : Matroska
Format version : Version 4 / Version 2
File size : 4.50 GiB
Duration : 1h 38mn
Overall bit rate : 6 534 Kbps
Encoded date : UTC 2014-04-05 16:46:38
Writing application : mkvmerge v6.5.0 ('Isn't she lovely') built on Oct 20 2013 12:50:05
Writing library : libebml v1.3.0 + libmatroska v1.4.1
Video #1
ID : 1
Format : AVC
Format/Info : Advanced Video Codec
Format profile : High@L4.1
Format settings, CABAC : Yes
Format settings, ReFrames : 5 frames
Codec ID : V_MPEG4/ISO/AVC
Duration : 1h 38mn
Bit rate : 4 703 Kbps
Width : 1 280 pixels
Height : 538 pixels
Display aspect ratio : 2.40:1
Frame rate mode : Constant
Frame rate : 23.976 fps
Color space : YUV
Chroma subsampling : 4:2:0
Bit depth : 8 bits
Scan type : Progressive
Bits/(Pixel*Frame) : 0.285
Stream size : 3.24 GiB (72%)
Language : English
Default : Yes
Forced : No
Audio #2
ID : 2
Format : AC-3
Format/Info : Audio Coding 3
Mode extension : CM (complete main)
Format settings, Endianness : Big
Codec ID : A_AC3
Duration : 1h 38mn
Bit rate mode : Constant
Bit rate : 192 Kbps
Channel(s) : 2 channels
Channel positions : Front: L R
Sampling rate : 48.0 KHz
Bit depth : 16 bits
Compression mode : Lossy
Stream size : 135 MiB (3%)
Default : Yes
Forced : No
Audio #3
ID : 3
Format : DTS
Format/Info : Digital Theater Systems
Mode : 16
Format settings, Endianness : Big
Codec ID : A_DTS
Duration : 1h 38mn
Bit rate mode : Constant
Bit rate : 1 509 Kbps
Channel(s) : 6 channels
Channel positions : Front: L C R, Side: L R, LFE
Sampling rate : 48.0 KHz
Bit depth : 24 bits
Compression mode : Lossy
Stream size : 1.04 GiB (23%)
Language : English
Default : No
Forced : No
Text #4
ID : 4
Format : UTF-8
Codec ID : S_TEXT/UTF8
Codec ID/Info : UTF-8 Plain Text
Language : English
Default : No
Forced : No
Text #5
ID : 5
Format : PGS
Muxing mode : zlib
Codec ID : S_HDMV/PGS
Codec ID/Info : The same subtitle format used on BDs/HD-DVDs
Language : Chinese
Default : No
Forced : No
Свернуть
Скриншоты
Изображение
Изображение
Изображение
Свернуть


Изображение

Изображение
_________________

ИзображениеПравила Создание релизов от А до Я
Не в сети
Профиль  
 Добавлено: 2014-04-06 22:43 (спустя 3 часа)
Аватара пользователя
Стаж: 7 лет 8 месяцев
Возраст: 31
Сообщений: 5
Лайков: 1
зря потратил время.
 Andreynv нравится это.
Не в сети
Профиль  
 Добавлено: 2014-04-10 18:54 (спустя 3 дня)
Стаж: 7 лет 5 месяцев
Сообщений: 103
Лайков: 4
ГеракЛ в ШТАНЫ наКАКАЛ !!!
Не в сети
Профиль  
 Добавлено: 2014-04-11 12:17 (спустя 17 часов)
Модератор
Аватара пользователя
Стаж: 8 лет 2 месяца
Возраст: 30
Сообщений: 3200
Спасибок: 2960
Лайков: 206
По честнаку: " Муть". :men:
_________________

ИзображениеПравила Создание релизов от А до Я
Не в сети
Профиль  
 Добавлено: 2014-04-27 17:23 (спустя 16 дней)
Аватара пользователя
Стаж: 7 лет 8 месяцев
Сообщений: 42
Из 5 балов на 2, не понравился фильм совсем!
Не в сети
Профиль  
 Добавлено: 2014-05-21 23:09 (спустя 24 дня)
Стаж: 3 года 7 месяцев
Сообщений: 15
:ps_ih:

Добавлено спустя 26 секунд:
:'( :ps_ih:
Не в сети
Профиль  
 Добавлено: 2014-05-26 13:22 (спустя 4 дня)
Стаж: 7 лет 5 месяцев
Сообщений: 103
Лайков: 4
геракл, в штаны накакал)
Не в сети
Профиль  
 Добавлено: 2014-10-31 08:51 (спустя 5 месяцев 4 дня)
Стаж: 7 лет 8 месяцев
Сообщений: 5
Такого дерьма давно не смотрел.
Отвечу на резонный вопрос: "Возможно фильм спасут грибы?"
НЕ СПАСУТ, ЕГО ВООБЩЕ НИЧТО НЕ СПАСЁТ!!!
Не в сети
Профиль  
Начать новую темуОтветить на тему  [ Сообщений: 8 ] 
Вы не можете начинать темы
Вы не можете отвечать на сообщения
Вы не можете редактировать свои сообщения
Вы не можете удалять свои сообщения