Правила форума

Здесь находятся раздачи, на которых не было полного источника (сида) более месяца.
Вы можете вернуть релиз в соответствующий раздел, для этого напишите нам в специальной теме и встаньте на раздачу.
Новые релизы, повторяющие релизы в архиве, повторами не считаются.
Начать новую темуОтветить на тему  [ Сообщений: 4 ] 
Сообщения
 Добавлено: 2012-06-15 21:39
Модератор
Аватара пользователя
Стаж: 6 лет 10 месяцев
Возраст: 33
Сообщений: 5908
Спасибок: 61259
Лайков: 3540
Изображение

Гнев Титанов 3D / Wrath of the Titans 3D


Год выпуска: 2012
Страна: США
Слоган: «Ощути их ярость»
Жанр: фэнтези, боевик, приключения
Продолжительность: 01:39:31
Перевод: Профессиональный (полное дублирование) Чистый звук
Режиссер: Джонатан Либесман
Сценарий: Дэн Мазо, Дэвид Джонсон, Беверли Кросс
Продюсер: Бэзил Иваник, Полли Коэн, Кевин Де Ла Ной
Оператор: Бен Дэвис
Композитор: Хавьер Наваррете
В ролях: Сэм Уортингтон, Лиам Нисон, Рэйф Файнс, Эдгар Рамирез, Тоби Кеббелл, Розамунд Пайк, Билл Найи, Дэнни Хьюстон, Джон Белл, Лили Джеймс.
Бюджет: $150 000 000
Сборы в США: $83 457 013
Сборы в России: $22 324 540
Сборы в мире: $301 757 013
Описание: Прошло десять лет после героического поражения Персеем морского чудовища Кракена, теперь он живет спокойной жизнью деревенского рыбака и воспитывает своего 10-летнего сына.
Тем временем, бушует борьба за превосходство между Богами и Титанами. Опасно ослабленные нехваткой человеческой любви и преданности, Боги теряют контроль над заключенными в тюрьму Титанами и их свирепым лидером, Кроносом, отцом правящих братьев Зевса, Аида и Посейдона. Давным-давно триумвират сверг своего сильного отца, отправив его гнить в мрачную пропасть Тартар, темницу, находящуюся в глубоких пределах подземного мира.
Персей не может остаться в стороне, когда Аид вместе с сыном Зевса, Аресом, заключают сделку с Кроносом, чтобы вместе уничтожить Зевса. Сила Титанов становится ещё больше, в то время как Зевс теряет свою мощь и власть, а по Земле раскидывается ад подземного мира.
Вместе с Андромедой, полубогом Агенором, сыном Посейдона и низвергнутым богом Гефестом,- Персей отправляется в опасное и отважное путешествие в подземный мир, чтобы спасти Зевса, свергнуть Титанов и сохранить людской род.

Изображение
MPAA: Изображение
Мировая премьера: 28 марта 2012
Релиз на DVD: 12 июля 2012, «CP Дистрибуция»
Релиз на Blu-ray: 12 июля 2012, «CP Дистрибуция»
Раздача группы: Изображение
Формат 3D: Горизонтальная анаморфная стереопара
Качество: BDRip, 1080p
Формат: Matroska
Видео: AVC; 1920x1080 (16:9); 14272 Kbps; 23,976 fps; 0,287 bit/pixel
Аудио: Russian; AC3; 448 Kbps; CBR; 6 ch

"Знаете ли Вы, что..."
  • Съёмки фильма проходили в Лондоне, Южном Уэльсе и на Канарском острове Тенерифе.
  • На роль Андромеды рассматривались Хэйли Этвелл, Джорджина Хэйг, Джанет Монтгомери, Доминик МакЭллигот, Клеманс Поэзи.
Свернуть
MediaInfo
General
Unique ID : 196311268754778264831673752563035370102 (0x93B02CD2CCB7870CBF8EDBCC76D77276)
Complete name : D:Моя музыкаWrath.Of.The.Titans.2012.3D.1080p.Bluray.mkv
Format : Matroska
File size : 10.4 GiB
Duration : 1h 39mn
Overall bit rate : 15.0 Mbps
Movie name : Resident1948
Encoded date : UTC 2012-06-14 21:48:19
Writing application : mkvmerge v4.8.0 ('I Got The...') сборка от May 24 2011 03:12:58
Writing library : libebml v1.2.0 + libmatroska v1.1.0

Video
ID : 1
Format : AVC
Format/Info : Advanced Video Codec
Format profile : High@L4.1
Format settings, CABAC : Yes
Format settings, ReFrames : 4 frames
Codec ID : V_MPEG4/ISO/AVC
Duration : 1h 39mn
Bit rate : 14.3 Mbps
Width : 1 920 pixels
Height : 1 080 pixels
Display aspect ratio : 16:9
Frame rate : 23.976 fps
Color space : YUV
Chroma subsampling : 4:2:0
Bit depth : 8 bits
Scan type : Progressive
Bits/(Pixel*Frame) : 0.287
Stream size : 9.92 GiB (95%)
Title : Wrath.Of.The.Titans.2012.3D.1080p.Bluray
Writing library : x264 core 125 r2200 999b753
Encoding settings : cabac=1 / ref=4 / deblock=1:-3:-3 / analyse=0x3:0x113 / me=umh / subme=7 / psy=1 / psy_rd=1.00:0.15 / mixed_ref=1 / me_range=16 / chroma_me=1 / trellis=1 / 8x8dct=1 / cqm=0 / deadzone=21,11 / fast_pskip=1 / chroma_qp_offset=-3 / threads=12 / lookahead_threads=2 / sliced_threads=0 / nr=0 / decimate=1 / interlaced=0 / bluray_compat=0 / constrained_intra=0 / bframes=3 / b_pyramid=2 / b_adapt=1 / b_bias=0 / direct=3 / weightb=1 / open_gop=0 / weightp=2 / keyint=250 / keyint_min=23 / scenecut=40 / intra_refresh=0 / rc_lookahead=40 / rc=crf / mbtree=1 / crf=20.0 / qcomp=0.60 / qpmin=10 / qpmax=69 / qpstep=4 / ip_ratio=1.40 / aq=1:1.00

Audio
ID : 2
Format : AC-3
Format/Info : Audio Coding 3
Mode extension : CM (complete main)
Muxing mode : Header stripping
Codec ID : A_AC3
Duration : 1h 39mn
Bit rate mode : Constant
Bit rate : 448 Kbps
Channel(s) : 6 channels
Channel positions : Front: L C R, Side: L R, LFE
Sampling rate : 48.0 KHz
Bit depth : 16 bits
Compression mode : Lossy
Stream size : 319 MiB (3%)
Language : Russian

Menu
00:00:00.000 : en:00:00:00.000
00:09:24.856 : en:00:09:24.856
00:20:07.123 : en:00:20:07.123
00:30:53.060 : en:00:30:53.060
00:40:02.317 : en:00:40:02.317
00:48:46.882 : en:00:48:46.882
01:00:21.743 : en:01:00:21.743
01:10:16.421 : en:01:10:16.421
01:19:18.712 : en:01:19:18.712
01:30:33.803 : en:01:30:33.803

Свернуть

Скриншоты

Изображение
Изображение
Изображение
Изображение
Свернуть
_________________
ИзображениеИзображение Изображение
Изображение
 tany1984 и di-ys1 нравится это.
Не в сети
Профиль  
 Добавлено: 2012-06-18 08:43 (спустя 2 дня 11 часов)
Аватара пользователя
Стаж: 7 лет 8 месяцев
Возраст: 24
Сообщений: 8
TotalMedia Theatre 5 его не читает? :ny_tik: че делать
Не в сети
Профиль  
 Добавлено: 2012-06-25 00:10 (спустя 6 дней)
Аватара пользователя
Стаж: 5 лет 1 месяц
Сообщений: 25
скачай KMPlayer прикрасный плеер и весет не много и тянет все


кстати как фильм стоит качать или нет?)
Не в сети
Профиль  
 Добавлено: 2013-02-02 17:36 (спустя 7 месяцев)
Стаж: 7 лет 8 месяцев
Сообщений: 3
Спасибок: 21
говно кино
Не в сети
Профиль  
Начать новую темуОтветить на тему  [ Сообщений: 4 ] 
Вы не можете начинать темы
Вы не можете отвечать на сообщения
Вы не можете редактировать свои сообщения
Вы не можете удалять свои сообщения