Правила форума

Здесь находятся раздачи, на которых не было полного источника (сида) более месяца.
Вы можете вернуть релиз в соответствующий раздел, для этого напишите нам в специальной теме и встаньте на раздачу.
Новые релизы, повторяющие релизы в архиве, повторами не считаются.
Начать новую темуОтветить на тему  [ Сообщений: 5 ] 
Сообщения
 Добавлено: 2012-06-12 14:18
Книголюб
Аватара пользователя
Стаж: 7 лет 2 месяца
Сообщений: 2823
Спасибок: 48823
Лайков: 73
Гнев Титанов
Wrath of the Titans

Изображение


Год выпуска: 2012
Страна: США
Слоган: «Ощути их ярость»
Жанр: фэнтези, боевик, приключения
Продолжительность: 01:30:20
Перевод: Авторский одноголосый (zamez)
Субтитры: Английские

Режиссёр: Джонатан Либесман
В ролях: Сэм Уортингтон, Лиам Нисон, Рэйф Файнс, Эдгар Рамирез, Тоби Кеббелл, Розамунд Пайк, Билл Найи, Дэнни Хьюстон, Джон Белл, Лили Джеймс
Описание: Прошло десять лет после героического поражения Персеем морского чудовища Кракена, теперь он живет спокойной жизнью деревенского рыбака и воспитывает своего 10-летнего сына.

Тем временем, бушует борьба за превосходство между Богами и Титанами. Опасно ослабленные нехваткой человеческой любви и преданности, Боги теряют контроль над заключенными в тюрьму Титанами и их свирепым лидером, Кроносом, отцом правящих братьев Зевса, Аида и Посейдона. Давным-давно триумвират сверг своего сильного отца, отправив его гнить в мрачную пропасть Тартар, темницу, находящуюся в глубоких пределах подземного мира.

Персей не может остаться в стороне, когда Аид вместе с сыном Зевса, Аресом, заключают сделку с Кроносом, чтобы вместе уничтожить Зевса. Сила Титанов становится ещё больше, в то время как Зевс теряет свою мощь и власть, а по Земле раскидывается ад подземного мира.

Вместе с Андромедой, полубогом Агенором, сыном Посейдона и низвергнутым богом Гефестом,- Персей отправляется в опасное и отважное путешествие в подземный мир, чтобы спасти Зевса, свергнуть Титанов и сохранить людской род.
Рейтинг MPAA: Рейтинг PG-13 (Дети до 13 лет допускаются на фильм только с родителями)
Мировая премьера: 28 марта 2012
Премьера в России: 29 марта 2012, «Каро-Премьер»
Бюджет: $150 000 000
Изображение 6.059 7 731

Качество: BDRip 720p
Формат: MKV
Видео кодек: H.264
Аудио кодек: AC3 (Dolby Digital)
Видео: 5500 kb/s, 23.976 fps, 1280x720 0.249Bits/Pixel
Аудио #1: Dolby AC3 48000Hz 6ch Russian
Аудио #2: MPEG Audio Layer 3 48000Hz stereo Russian
Аудио #3: DTS 48000Hz 6ch English
Субтитры: Английские
MediaInfo
General
Unique ID : 235629625113176975629250483734479158414 (0xB1449D75D19600F0ADE5AC0FA3B8BC8E)
Complete name : K:\Torrent\Wrath.of.the.Titans..mkv
Format : Matroska
Format version : Version 2
File size : 5.27 GiB
Duration : 1h 39mn
Overall bit rate : 7 578 Kbps
Encoded date : UTC 2012-06-12 07:42:30
Writing application : mkvmerge v5.6.0 ('Kenya Kane') built on May 27 2012 16:44:04
Writing library : libebml v1.2.3 + libmatroska v1.3.0

Video
ID : 1
Format : AVC
Format/Info : Advanced Video Codec
Format profile : High@L4.1
Format settings, CABAC : Yes
Format settings, ReFrames : 9 frames
Muxing mode : Header stripping
Codec ID : V_MPEG4/ISO/AVC
Duration : 1h 39mn
Bit rate : 5 500 Kbps
Width : 1 280 pixels
Height : 720 pixels
Display aspect ratio : 16:9
Frame rate : 23.976 fps
Color space : YUV
Chroma subsampling : 4:2:0
Bit depth : 8 bits
Scan type : Progressive
Bits/(Pixel*Frame) : 0.249
Stream size : 3.72 GiB (70%)
Writing library : x264 core 125 r2200 999b753
Encoding settings : cabac=1 / ref=9 / deblock=1:-3:-3 / analyse=0x3:0x113 / me=umh / subme=10 / psy=1 / psy_rd=1.10:0.00 / mixed_ref=1 / me_range=32 / chroma_me=1 / trellis=2 / 8x8dct=1 / cqm=0 / deadzone=21,11 / fast_pskip=0 / chroma_qp_offset=-2 / threads=18 / lookahead_threads=3 / sliced_threads=0 / nr=0 / decimate=0 / interlaced=0 / bluray_compat=0 / constrained_intra=0 / bframes=8 / b_pyramid=2 / b_adapt=2 / b_bias=0 / direct=3 / weightb=1 / open_gop=0 / weightp=2 / keyint=240 / keyint_min=24 / scenecut=40 / intra_refresh=0 / rc_lookahead=120 / rc=2pass / mbtree=1 / bitrate=5500 / ratetol=1.0 / qcomp=0.70 / qpmin=0 / qpmax=69 / qpstep=4 / cplxblur=20.0 / qblur=0.5 / ip_ratio=1.40 / aq=1:0.80
Language : English
Default : Yes
Forced : No

Audio #1
ID : 2
Format : AC-3
Format/Info : Audio Coding 3
Mode extension : CM (complete main)
Muxing mode : Header stripping
Codec ID : A_AC3
Duration : 1h 39mn
Bit rate mode : Constant
Bit rate : 448 Kbps
Channel(s) : 6 channels
Channel positions : Front: L C R, Side: L R, LFE
Sampling rate : 48.0 KHz
Bit depth : 16 bits
Compression mode : Lossy
Stream size : 319 MiB (6%)
Title : L1
Language : Russian
Default : Yes
Forced : Yes

Audio #2
ID : 3
Format : MPEG Audio
Format version : Version 1
Format profile : Layer 3
Mode : Joint stereo
Mode extension : MS Stereo
Muxing mode : Header stripping
Codec ID : A_MPEG/L3
Codec ID/Hint : MP3
Duration : 1h 39mn
Bit rate mode : Constant
Bit rate : 128 Kbps
Channel(s) : 2 channels
Sampling rate : 48.0 KHz
Compression mode : Lossy
Stream size : 91.2 MiB (2%)
Title : Dt
Language : Russian
Default : No
Forced : No

Audio #3
ID : 4
Format : DTS
Format/Info : Digital Theater Systems
Muxing mode : Header stripping
Codec ID : A_DTS
Duration : 1h 39mn
Bit rate mode : Constant
Bit rate : 1 510 Kbps
Channel(s) : 6 channels
Channel positions : Front: L C R, Side: L R, LFE
Sampling rate : 48.0 KHz
Bit depth : 24 bits
Compression mode : Lossy
Stream size : 1.05 GiB (20%)
Language : English
Default : No
Forced : No

Text
ID : 5
Format : PGS
Muxing mode : zlib
Codec ID : S_HDMV/PGS
Codec ID/Info : The same subtitle format used on BDs/HD-DVDs
Language : English
Default : No
Forced : No

Menu
00:00:00.000 : en:00:00:00.000
00:09:24.856 : en:00:09:24.856
00:20:07.123 : en:00:20:07.123
00:30:53.059 : en:00:30:53.059
00:40:02.316 : en:00:40:02.316
00:48:46.882 : en:00:48:46.882
01:00:21.743 : en:01:00:21.743
01:10:16.420 : en:01:10:16.420
01:19:18.712 : en:01:19:18.712
01:30:33.803 : en:01:30:33.803


Свернуть

Скриншоты
Изображение
Изображение
Изображение
Изображение
Свернуть
Не в сети
Профиль  
 Добавлено: 2012-06-12 15:20 (спустя 1 час 2 минуты)
Avenger
Аватара пользователя
Стаж: 7 лет 4 месяца
Сообщений: 326
Спасибок: 1906
Лайков: 2
Авторский одноголосый (zamez) Звук с TS
У вас получается, что перевод одноголосый, да ещё и с TS! :ne_ne:
Правильно примерно так
Аудио #1 Авторский одноголосый (zamez)
Аудио #2 Профессиональный (дублированный) Звук с TS
_________________
Все фильмографии на NNTT.org
Не в сети
Профиль  
 Добавлено: 2012-06-12 15:32 (спустя 11 минут)
Top-releaser
Аватара пользователя
Стаж: 6 лет 7 месяцев
Сообщений: 2078
Спасибок: 3229
Лайков: 9
еще месяц ждать нормальной озвучки :(
Не в сети
Профиль  
 Добавлено: 2012-06-13 20:30 (спустя 1 день 4 часа)
Аватара пользователя
Стаж: 5 лет 3 месяца
Сообщений: 17
да уж.
_________________
Не бойтесь делать то, что не умеете. Помните, ковчег построил любитель, — профессионалы построили Титаник.
Не в сети
Профиль  
 Добавлено: 2012-06-13 21:20 (спустя 50 минут)
Стаж: 7 лет 2 месяца
Сообщений: 4
Че нет НОРМ ОЗВУЧКИ????
Не в сети
Профиль  
Начать новую темуОтветить на тему  [ Сообщений: 5 ] 
Вы не можете начинать темы
Вы не можете отвечать на сообщения
Вы не можете редактировать свои сообщения
Вы не можете удалять свои сообщения