Правила форума

Здесь находятся раздачи, на которых не было полного источника (сида) более месяца.
Вы можете вернуть релиз в соответствующий раздел, для этого напишите нам в специальной теме и встаньте на раздачу.
Новые релизы, повторяющие релизы в архиве, повторами не считаются.
Начать новую темуОтветить на тему  [ Сообщений: 5 ] 
Сообщения
 Добавлено: 2014-08-31 15:53
Аватара пользователя
Стаж: 8 лет 1 месяц
Сообщений: 1776
Спасибок: 2301
Лайков: 22
Годзилла
Godzilla

«The king will rise»

Изображение
Изображение







Год выпуска: 2014 год
Страна: США, Япония
Продолжительность: 02:03:07
Перевод: Дублированный



Жанр: фантастика, боевик, триллер



Режиссер: Гарет Эдвардс
Сценарий: Макс Боренштейн, Дэйв Каллахэм
Оператор: Шеймас МакГарви
Композитор: Александр Депла
Продюсер(ы): Боб Дюксэй, Джон Дж. Джашни, Мэри Пэрент




В ролях: Аарон Тейлор-Джонсон, Кен Ватанабе, Элизабет Олсен, Салли Хокинс, Брайан Крэнстон, Дэвид Стрэтэйрн, Ричард Т. Джонс, Карсон Болд, Жюльет Бинош, Виктор Расук














Описание: "Эпическое возрождение культовой Годзиллы сталкивает самого известного в мире монстра со злобными созданиями, появившимися из-за самонадеянности ученых и угрожающими уничтожить всё человечество."


Изображение


Качество: BDRip [1080p]
Формат: MKV
Видео: AVC, 1920x800 (2.40:1), 23.976 fps, 8 656 Kbps (0.235 bit/pixel)
Аудио: AC-3, 48.0 KHz, 2 ch, 256 Kbps, CBR (Russian)
Аудио: DTS, 48.0 KHz, 6 ch, 1 510 Kbps, CBR (English)



Подробные тех. данные
General
G:\LOAD\G0dz1lla.2014.D.BDRip.1080p.mkv
General
Complete name : G:\LOAD\G0dz1lla.2014.D.BDRip.1080p.mkv
Format : Matroska
File size : 8.96 GiB
Duration : 2h 3mn
Overall bit rate : 10.4 Mbps
Encoded date : UTC 2014-08-22 09:51:50
Writing application : mkvmerge v7.0.0 ('Where We Going') 64bit built on Jun 9 2014 15:16:27
Writing library : libebml v1.3.0 + libmatroska v1.4.1
Video #1
ID : 1
Format : AVC
Format/Info : Advanced Video Codec
Format profile : High@L4.1
Format settings, CABAC : Yes
Format settings, ReFrames : 5 frames
Muxing mode : Container profile=Unknown@4.1
Codec ID : V_MPEG4/ISO/AVC
Duration : 2h 2mn
Bit rate : 8 450 Kbps
Nominal bit rate : 8 656 Kbps
Width : 1 920 pixels
Height : 800 pixels
Display aspect ratio : 2.40:1
Frame rate : 23.976 fps
Resolution : 24 bits
Colorimetry : 4:2:0
Scan type : Progressive
Bits/(Pixel*Frame) : 0.229
Stream size : 7.26 GiB (81%)
Writing library : x264 core 142 r2431 ac76440
Encoding settings : cabac=1 / ref=5 / deblock=1:0:0 / analyse=0x3:0x133 / me=umh / subme=7 / psy=1 / psy_rd=1.00:0.00 / mixed_ref=1 / me_range=16 / chroma_me=1 / trellis=1 / 8x8dct=1 / cqm=0 / deadzone=21,11 / fast_pskip=0 / chroma_qp_offset=-2 / threads=18 / lookahead_threads=3 / sliced_threads=0 / nr=0 / decimate=1 / interlaced=0 / bluray_compat=0 / constrained_intra=0 / bframes=3 / b_pyramid=2 / b_adapt=1 / b_bias=0 / direct=1 / weightb=1 / open_gop=0 / weightp=2 / keyint=250 / keyint_min=23 / scenecut=40 / intra_refresh=0 / rc_lookahead=40 / rc=2pass / mbtree=1 / bitrate=8656 / ratetol=1.0 / qcomp=0.60 / qpmin=0 / qpmax=69 / qpstep=4 / cplxblur=20.0 / qblur=0.5 / ip_ratio=1.40 / aq=1:1.00
Audio #2
ID : 2
Format : AC-3
Format/Info : Audio Coding 3
Codec ID : A_AC3
Duration : 2h 3mn
Bit rate mode : Constant
Bit rate : 256 Kbps
Channel(s) : 2 channels
Channel positions : L R
Sampling rate : 48.0 KHz
Stream size : 225 MiB (2%)
Audio #3
ID : 3
Format : DTS
Format/Info : Digital Theater Systems
Codec ID : A_DTS
Duration : 2h 3mn
Bit rate mode : Constant
Bit rate : 1 510 Kbps
Channel(s) : 6 channels
Channel positions : Front: L C R, Surround: L R, LFE
Sampling rate : 48.0 KHz
Resolution : 24 bits
Stream size : 1.30 GiB (14%)
Свернуть


СКРИНШОТЫ
Изображение
Изображение
Изображение
Изображение
Изображение
Изображение
Изображение
Изображение
Изображение
Изображение
Изображение
Свернуть



УВАЖАЙТЕ ЧУЖОЙ ТРУД !!!
Изображение
Изображение
Свернуть



Изображение

Изображение
 Scotty нравится это.
Не в сети
Профиль  
 Добавлено: 2014-08-31 17:14 (спустя 1 час 20 минут)
Аватара пользователя
Стаж: 8 лет 1 месяц
Сообщений: 1776
Спасибок: 2301
Лайков: 22
Не знаю почему все говорят фильм говно, видимо либо это малолетки, которым лишь бы строллить по-поводу и без, либо те, кто кроме "Эммириховской Годзилы" ничего больше не смотрел, поэтому им надо только "экшона". По-мне так правильно фильм отдали Гарету, т.к. его видение ещё не развращенно Голливудом, и доказательство тому, его "Мостры", лично для меня просто великолепный псевдо-документальный фильм, но вернёмся к новой Годжире - это наверное первый фильм этого года, который я смотрел буквально открыв рот и забыв о пыве, налитом и греющимся в кружке, т.к. являюсь поклонником этой франшизы и смотрел все фильмы, даже чёрно-белые, в С.С.С.Р., а потом и в С.Н.Г. их довольно часто крутили, могу себе позволить сравнить что было и что есть сейчас. Так вот, этот фильм доставил мне именно те эмоции, которые я испытывал при просмотре в детстве, в фильме передана именно та философия и атмосфера, которую япошки вложили и поддерживали столько лет, выпуская всё новые фильмы про любимого монстра, а тот же Эммерих взял и сделал чисто америкосовский ширпотреб, чем весьма, кстати, были недовольны япошки, пожалев что продали права.Хочу ещё заметить, что весьма был удивлён, что тут снимается "пипец", если честно вообще не узнал его, пока не посмотрел актёрский состав на кинопоиске, что большой плюс этому актёру, не придётся играть всю жизнь "укуренных придурков". Так что подводя итог могу с полной уверенностью для себя признаться, что фильм оправдал мои ожидания и даже больше, надеюсь продолжение будет выдержано в том же духе и не скатится к америкосовскому тупому "экшону".

Изображение

Изображение
 kuv_den нравится это.
Не в сети
Профиль  
 Добавлено: 2014-08-31 19:09 (спустя 1 час 54 минуты)
Стаж: 7 лет 5 месяцев
Сообщений: 8
Гляну что за фильм. Раньше смотрел Почему бы новый не посмотреть Спасиб за релиз
Не в сети
Профиль  
 Добавлено: 2014-08-31 20:46 (спустя 1 час 36 минут)
Русские витязи
Аватара пользователя
Стаж: 6 лет 10 месяцев
Возраст: 30
Сообщений: 485
Лайков: 4
Ходил в кинотеатр.Не пожалел.Правда годзик толстоват вышел :hi_hi_hi:
Не в сети
Профиль  
 Добавлено: 2014-08-31 21:19 (спустя 32 минуты)
Аватара пользователя
Стаж: 8 лет 1 месяц
Сообщений: 1776
Спасибок: 2301
Лайков: 22
sizam233

Пожалуйста !!!


Изображение

Изображение
Не в сети
Профиль  
Начать новую темуОтветить на тему  [ Сообщений: 5 ] 
Вы не можете начинать темы
Вы не можете отвечать на сообщения
Вы не можете редактировать свои сообщения
Вы не можете удалять свои сообщения