Правила форума

Здесь находятся раздачи, на которых не было полного источника (сида) более месяца.
Вы можете вернуть релиз в соответствующий раздел, для этого напишите нам в специальной теме и встаньте на раздачу.
Новые релизы, повторяющие релизы в архиве, повторами не считаются.
Начать новую темуОтветить на тему  [ Сообщений: 5 ] 
Сообщения
 Добавлено: 2014-01-21 23:46
Аватара пользователя
Стаж: 4 года 1 месяц
Сообщений: 12
Спасибок: 268
Лайков: 2
Голодные игры: И вспыхнет пламя / The Hunger Games: Catching Fire

Изображение


Год выпуска: 2013
Страна: США (Color Force)
Слоган: «Помни, кто твой настоящий враг»
Жанр: Фантастика, боевик, триллер, приключения
Продолжительность: 02:26:15
Версия фильма: Unrated / Полная версия
Перевод: Профессиональный (Полное дублирование) + Оригинальная звуковая дорожка
Субтитры: Русские, Английские

Режиссёр: Френсис Лоуренс
Сценарист: Саймон Бофой, Майкл Арндт, Сьюзен Коллинз
Продюсер: Сьюзен Коллинз, Джозеф Дрэйк, Нина Джейкобсон
Оператор: Джо Уиллемс
Композитор: Джеймс Ньютон Ховард
В ролях: Дженнифер Лоуренс, Джош Хатчерсон, Сэм Клафлин, Джена Мэлоун, Вуди Харрельсон, Элизабет Бэнкс, Лиам Хемсворт, Дональд Сазерленд, Филип Сеймур Хоффман, Стэнли Туччи
Описание: Сумев выжить на безжалостных Голодных играх, Китнисс Эвердин и Пит Мелларк возвращаются домой. Но теперь они в еще большей опасности, так как своим отказом играть по правилам на Арене бросили вызов Капитолию. По традиции следующие, юбилейные, Голодные игры должны стать особенными, и в этот раз в них участвуют только победители прошлых лет. Китнисс и Пит вынуждены вновь выйти на Арену, где будут соперничать с сильнейшими. Правила игры меняются. Арена еще опасней, масштаб еще больше, ставки еще выше!
Рейтинг MPAA: Рейтинг PG-13 (Дети до 13 лет допускаются на фильм только с родителями)
Мировая премьера: 11 ноября 2013
Премьера в России: 21 ноября 2013
Бюджет: $130 000 000
Кассовые сборы: $850 970 000
Изображение 8.010 (44869)
Изображение 8.20 (57018)

Качество: BDRip 720р
Формат: MKV
Видео кодек: XviD
Аудио кодек: AC3 (Dolby Digital)
Видео: 4589 kb/s, 1280x720
Аудио #1: Russian: AC3, 384 kb/s (6 ch) [Профессиональный (Полное дублирование)]
Аудио #2: English: AC3, 640 kb/s (6 ch) [Оригинальная звуковая дорожка]
Субтитры: Русские, Английские
Скриншоты
Изображение
Изображение
Изображение
Изображение
Свернуть

Знаете ли Вы, что...
Фильм снят по мотивам романа Сюзанн Коллинз «И вспыхнет пламя» (Catching Fire, 2009).

Во время съемок на арене Дженнифер Лоуренс ударила себя луком на бегу и нырнула в бассейн, из-за чего она частично оглохла на 6 дней.

Некоторые сцены Капитолия были сняты в отеле Atlanta Marriott Marquis, это один из отелей, где проходит ежегодный съезд «Dragon*con».
Свернуть

MediaInfo
Общее
Формат : BDRip
Версия формата : Version 2
Размер файла : 5,90 Гбайт
Продолжительность : 2 ч. 26 м.
Общий поток : 5771 Кбит/сек
Дата кодирования : UTC 2014-01-21 19:03:30

Видео
Идентификатор : 1
Формат : AVC
Формат/Информация : Advanced Video Codec
Профиль формата : High@L4.1
Параметр CABAC формата : Да
Параметр ReFrames формата : 8 кадров
Идентификатор кодека : V_MPEG4/ISO/AVC
Продолжительность : 2 ч. 26 м.
Битрейт : 4746 Кбит/сек
Ширина : 1280 пикселей
Высота : 720 пикселей
Соотношение сторон : 16:9
Режим частоты кадров : Постоянный
Частота кадров : 23,976 кадра/сек
Цветовое пространство : YUV
Субдискретизация насыщенности : 4:2:0
Битовая глубина : 8 бит
Тип развёртки : Прогрессивная
Бит/(Пиксели*Кадры) : 0.215
Размер потока : 4,73 Гбайт (80%)
Заголовок : The.Hunger.Games.Catching.Fire.2013
Библиотека кодирования : x264 core 138 r2356 a1d3d17

Язык : English
Default : Да
Forced : Нет

Аудио #1
Идентификатор : 2
Формат : AC-3
Формат/Информация : Audio Coding 3
Расширение режима : CM (complete main)
Параметр Endianness формата : Big
Идентификатор кодека : A_AC3
Продолжительность : 2 ч. 26 м.
Вид битрейта : Постоянный
Битрейт : 384 Кбит/сек
Каналы : 6 каналов
Расположение каналов : Front: L C R, Side: L R, LFE
Частота : 48,0 КГц
Битовая глубина : 16 бит
Метод сжатия : С потерями
Размер потока : 402 Мбайт (7%)
Язык : Russian
Default : Да
Forced : Нет

Аудио #2
Идентификатор : 3
Формат : AC-3
Формат/Информация : Audio Coding 3
Расширение режима : CM (complete main)
Параметр Endianness формата : Big
Идентификатор кодека : A_AC3
Продолжительность : 2 ч. 26 м.
Вид битрейта : Постоянный
Битрейт : 640 Кбит/сек
Каналы : 6 каналов
Расположение каналов : Front: L C R, Side: L R, LFE
Частота : 48,0 КГц
Битовая глубина : 16 бит
Метод сжатия : С потерями
Размер потока : 669 Мбайт (11%)
Заголовок : English AC3 5.1 640Kbps
Язык : English
Default : Нет
Forced : Нет

Текст #1
Идентификатор : 4
Формат : UTF-8
Идентификатор кодека : S_TEXT/UTF8
Идентификатор кодека/Информация : UTF-8 Plain Text
Язык : Russian
Default : Нет
Forced : Нет

Текст #2
Идентификатор : 5
Формат : UTF-8
Идентификатор кодека : S_TEXT/UTF8
Идентификатор кодека/Информация : UTF-8 Plain Text
Язык : English
Default : Нет
Forced : Нет

Текст #3
Идентификатор : 6
Формат : UTF-8
Идентификатор кодека : S_TEXT/UTF8
Идентификатор кодека/Информация : UTF-8 Plain Text
Язык : English
Default : Нет
Forced : Нет
Свернуть

Изображение
_________________
Изображение


Последний раз редактировалось xPEPSIx 2014-01-22 19:58, всего редактировалось 2 раз(а).
 eminrap нравится это.
Не в сети
Профиль  
 Добавлено: 2014-01-22 00:22 (спустя 35 минут)
Модератор
Аватара пользователя
Стаж: 7 лет 9 месяцев
Сообщений: 4521
Спасибок: 112862
Лайков: 583
xPEPSIx
Почему не на раздаче ?
Не в сети
Профиль  
 Добавлено: 2014-01-22 11:53 (спустя 11 часов)
Аватара пользователя
Стаж: 7 лет 4 месяца
Возраст: 25
Сообщений: 2654
Спасибок: 534
Лайков: 81
Спасибо! Не долго пришлось ждать нормального звука!) :)
_________________
Заработок кредитов для онлайн игр
Не в сети
Профиль  
 Добавлено: 2014-01-22 12:25 (спустя 32 минуты)
Модератор
Аватара пользователя
Стаж: 7 лет 9 месяцев
Сообщений: 4521
Спасибок: 112862
Лайков: 583
xPEPSIx
перевод: Полное дублирование (не слышна иностранная речь)
а не
Многоголосый, закадровый (слышна речь)

качество BDRip 720p
:)
как поправите - жду ЛС
Не в сети
Профиль  
 Добавлено: 2014-01-22 19:53 (спустя 7 часов)
Модератор
Аватара пользователя
Стаж: 7 лет 9 месяцев
Сообщений: 4521
Спасибок: 112862
Лайков: 583
Аудио #1: Russian: AC3, 384 kb/s (6 ch) [Профессиональный (многоголосый закадровый)]
и в названии темы тоже поправьте, пожалуйста, качество BDRip 720p
Не в сети
Профиль  
Начать новую темуОтветить на тему  [ Сообщений: 5 ] 
Вы не можете начинать темы
Вы не можете отвечать на сообщения
Вы не можете редактировать свои сообщения
Вы не можете удалять свои сообщения