Правила форума

Здесь находятся раздачи, на которых не было полного источника (сида) более месяца.
Вы можете вернуть релиз в соответствующий раздел, для этого напишите нам в специальной теме и встаньте на раздачу.
Новые релизы, повторяющие релизы в архиве, повторами не считаются.
Начать новую темуОтветить на тему  [ Сообщений: 6 ] 
Сообщения
 Добавлено: 2014-01-20 13:26
Модератор
Аватара пользователя
Стаж: 8 лет 2 месяца
Возраст: 30
Сообщений: 3200
Спасибок: 2960
Лайков: 206
Изображение

Изображение


Название: Голодные игры: И вспыхнет пламя
Оригинальное название: The Hunger Games: Catching Fire
Страна: США
Год выхода: 2013
Жанр: фантастика, боевик, триллер, приключения
Режиссер: Френсис Лоуренс
В ролях: Дженнифер Лоуренс, Джош Хатчерсон, Сэм Клафлин, Джена Мэлоун, Вуди Харрельсон, Элизабет Бэнкс, Лиам Хемсворт, Дональд Сазерленд, Филип Сеймур Хоффман, Стэнли Туччи
Продолжительность: 02:26:14
Перевод:Профессиональный (полное дублирование) [Чистый звук]
О фильме:
Сумев выжить на безжалостных Голодных играх, Китнисс Эвердин и Пит Мелларк возвращаются домой. Но теперь они в еще большей опасности, так как своим отказом играть по правилам на Арене бросили вызов Капитолию. По традиции следующие, юбилейные, Голодные игры должны стать особенными, и в этот раз в них участвуют только победители прошлых лет. Китнисс и Пит вынуждены вновь выйти на Арену, где будут соперничать с сильнейшими. Правила игры меняются. Арена еще опасней, масштаб еще больше, ставки еще выше!
Рейтинг MPAA: Рейтинг PG-13 (Дети до 13 лет допускаются на фильм только с родителями)
Мировая премьера: 11 ноября 2013
Премьера в России: 21 ноября 2013, «Вольга»
Бюджет: $130 000 000
Кассовые сборы: $832 792 651
Качество: BDRip (1080p)
Видео: MPEG-4 AVC, 9152 Кбит/с, 1920x1080
Аудио: Русский (АС3, 5 ch, 384 Кбит/с) английский (АС3, 6 ch, 640 Кбит/с)
Продолжительность: 02:26:15
Перевод: Профессиональный (полное дублирование) [Чистый звук]
Субтитры: Русские, английские
Дополнительно: Сохранены оригинальные чаптеры
ИзображениеИзображение
MediaInfo
General
Unique ID : 244869976282757157758340447612196092896 (0xB8383DF26E086CA7892FFCA27CCBFBE0)
Format : Matroska
Format version : Version 2
File size : 10.4 GiB
Duration : 2h 26mn
Overall bit rate : 10.2 Mbps
Encoded date : UTC 2014-01-21 19:08:40
Writing application : mkvmerge v6.7.0 ('Back to the Ground') 32bit built on Jan 8 2014 15:03:17
Writing library : libebml v1.3.0 + libmatroska v1.4.1
Video #1
ID : 1
Format : AVC
Format/Info : Advanced Video Codec
Format profile : High@L4.1
Format settings, CABAC : Yes
Format settings, ReFrames : 4 frames
Codec ID : V_MPEG4/ISO/AVC
Duration : 2h 26mn
Bit rate : 9 152 Kbps
Width : 1 920 pixels
Height : 1 080 pixels
Display aspect ratio : 16:9
Frame rate mode : Constant
Frame rate : 23.976 fps
Color space : YUV
Chroma subsampling : 4:2:0
Bit depth : 8 bits
Scan type : Progressive
Bits/(Pixel*Frame) : 0.184
Stream size : 9.14 GiB (88%)
Title : The.Hunger.Games.Catching.Fire.2013
Writing library : x264 core 138 r2356 a1d3d17
Encoding settings : cabac=1 / ref=4 / deblock=1:-3:-3 / analyse=0x3:0x113 / me=umh / subme=10 / psy=1 / psy_rd=1.00:0.05 / mixed_ref=1 / me_range=32 / chroma_me=1 / trellis=2 / 8x8dct=1 / cqm=0 / deadzone=21,11 / fast_pskip=0 / chroma_qp_offset=-2 / threads=18 / lookahead_threads=1 / sliced_threads=0 / nr=0 / decimate=1 / interlaced=0 / bluray_compat=0 / constrained_intra=0 / bframes=4 / b_pyramid=2 / b_adapt=2 / b_bias=0 / direct=3 / weightb=1 / open_gop=0 / weightp=2 / keyint=250 / keyint_min=23 / scenecut=40 / intra_refresh=0 / rc=2pass / mbtree=0 / bitrate=9152 / ratetol=1.0 / qcomp=0.70 / qpmin=0 / qpmax=69 / qpstep=4 / cplxblur=20.0 / qblur=0.5 / ip_ratio=1.40 / pb_ratio=1.30 / aq=2:1.00
Language : English
Default : Yes
Forced : No
Audio #2
ID : 2
Format : AC-3
Format/Info : Audio Coding 3
Mode extension : CM (complete main)
Format settings, Endianness : Big
Codec ID : A_AC3
Duration : 2h 26mn
Bit rate mode : Constant
Bit rate : 384 Kbps
Channel(s) : 6 channels
Channel positions : Front: L C R, Side: L R, LFE
Sampling rate : 48.0 KHz
Bit depth : 16 bits
Compression mode : Lossy
Stream size : 402 MiB (4%)
Language : Russian
Default : Yes
Forced : No
Audio #3
ID : 3
Format : AC-3
Format/Info : Audio Coding 3
Mode extension : CM (complete main)
Format settings, Endianness : Big
Codec ID : A_AC3
Duration : 2h 26mn
Bit rate mode : Constant
Bit rate : 640 Kbps
Channel(s) : 6 channels
Channel positions : Front: L C R, Side: L R, LFE
Sampling rate : 48.0 KHz
Bit depth : 16 bits
Compression mode : Lossy
Stream size : 669 MiB (6%)
Title : English AC3 5.1 640Kbps
Language : English
Default : No
Forced : No
Text #4
ID : 4
Format : UTF-8
Codec ID : S_TEXT/UTF8
Codec ID/Info : UTF-8 Plain Text
Language : Russian
Default : No
Forced : No
Text #5
ID : 5
Format : UTF-8
Codec ID : S_TEXT/UTF8
Codec ID/Info : UTF-8 Plain Text
Language : English
Default : No
Forced : No
Text #6
ID : 6
Format : UTF-8
Codec ID : S_TEXT/UTF8
Codec ID/Info : UTF-8 Plain Text
Language : English
Default : No
Forced : No
Свернуть
Скриншоты
Изображение
Изображение
Изображение
Изображение
Изображение
Изображение
Свернуть

Изображение
_________________

ИзображениеПравила Создание релизов от А до Я
 Kollaidermen и DmitriyDmitriy нравится это.
Не в сети
Профиль  
 Добавлено: 2014-01-23 12:46 (спустя 2 дня 23 часа)
Модератор
Аватара пользователя
Стаж: 8 лет 2 месяца
Возраст: 30
Сообщений: 3200
Спасибок: 2960
Лайков: 206
Торрент файл обновлён до [чистый звук].

Фильм понравился, хоть и немного затянут. Полностью выдержан в сюжетной линии первой части.Посмотрим на сколько частей удастся затянуть зрителей. Пока оценка 7 из 10.
_________________

ИзображениеПравила Создание релизов от А до Я
Не в сети
Профиль  
 Добавлено: 2014-01-25 18:33 (спустя 2 дня 5 часов)
Стаж: 8 лет 3 месяца
Сообщений: 5
Дайте раздачу, плиз
Не в сети
Профиль  
 Добавлено: 2014-01-26 10:20 (спустя 15 часов)
Аватара пользователя
Стаж: 3 года 4 месяца
Сообщений: 21
Лайков: 2
а субтитры отключаемые?
а то как то слишком много их на скринах :)
Не в сети
Профиль  
 Добавлено: 2014-01-28 18:09 (спустя 2 дня 7 часов)
Модератор
Аватара пользователя
Стаж: 8 лет 2 месяца
Возраст: 30
Сообщений: 3200
Спасибок: 2960
Лайков: 206
Frank White
Да, отключаемые :)
_________________

ИзображениеПравила Создание релизов от А до Я
Не в сети
Профиль  
 Добавлено: 2014-01-29 18:38 (спустя 1 день)
Аватара пользователя
Стаж: 3 года 4 месяца
Сообщений: 21
Лайков: 2
TooGooD
тогда спасибо вам :co_ol:
Не в сети
Профиль  
Начать новую темуОтветить на тему  [ Сообщений: 6 ] 
Вы не можете начинать темы
Вы не можете отвечать на сообщения
Вы не можете редактировать свои сообщения
Вы не можете удалять свои сообщения