Правила форума

Здесь находятся раздачи, на которых не было полного источника (сида) более месяца.
Вы можете вернуть релиз в соответствующий раздел, для этого напишите нам в специальной теме и встаньте на раздачу.
Новые релизы, повторяющие релизы в архиве, повторами не считаются.
Начать новую темуОтветить на тему  [ Сообщений: 3 ] 
Сообщения
 Добавлено: 2014-01-20 00:36
Модератор
Аватара пользователя
Стаж: 8 лет 2 месяца
Возраст: 30
Сообщений: 3200
Спасибок: 2960
Лайков: 206
Изображение

Изображение


Название: Голодные игры: И вспыхнет пламя
Оригинальное название: The Hunger Games: Catching Fire
Страна: США
Год выхода: 2013
Жанр: фантастика, боевик, триллер, приключения
Режиссер: Френсис Лоуренс
В ролях: Дженнифер Лоуренс, Джош Хатчерсон, Сэм Клафлин, Джена Мэлоун, Вуди Харрельсон, Элизабет Бэнкс, Лиам Хемсворт, Дональд Сазерленд, Филип Сеймур Хоффман, Стэнли Туччи
Продолжительность: 02:26:15
Перевод: Дублированное [звук с TS]
О фильме:
Сумев выжить на безжалостных Голодных играх, Китнисс Эвердин и Пит Мелларк возвращаются домой. Но теперь они в еще большей опасности, так как своим отказом играть по правилам на Арене бросили вызов Капитолию. По традиции следующие, юбилейные, Голодные игры должны стать особенными, и в этот раз в них участвуют только победители прошлых лет. Китнисс и Пит вынуждены вновь выйти на Арену, где будут соперничать с сильнейшими. Правила игры меняются. Арена еще опасней, масштаб еще больше, ставки еще выше!
Рейтинг MPAA: Рейтинг PG-13 (Дети до 13 лет допускаются на фильм только с родителями)
Мировая премьера: 11 ноября 2013
Премьера в России: 21 ноября 2013, «Вольга»
Бюджет: $130 000 000
Кассовые сборы: $832 792 651
Формат: MKV (x264)
Видео: AVC, 1280x720 (2.40:1), 23.976 fps, 4582 Kbps (0.207 bit/pixel)
Аудио#1: Russian: MP3, 48.0 KHz, 2 ch, 320 Kbps
Аудио#2: English: AC3 48.0 KHz, 6 ch, 640 Kbps
Субтитры: English
Дополнительно: Сохранены оригинальные чаптеры
ИзображениеИзображениеИзображение
MediaInfo
General
Unique ID : 173641711048613105482275508901258520554 (0x82A22D55CA7B9F3FB6EC0A2C0EE0E7EA)
Format : Matroska
Format version : Version 2
File size : 5.78 GiB
Duration : 2h 26mn
Overall bit rate : 5 655 Kbps
Encoded date : UTC 2014-01-19 19:11:10
Writing application : mkvmerge v6.7.0 ('Back to the Ground') 32bit built on Jan 8 2014 15:03:17
Writing library : libebml v1.3.0 + libmatroska v1.4.1
Video #2
ID : 2
Format : AVC
Format/Info : Advanced Video Codec
Format profile : High@L4.1
Format settings, CABAC : Yes
Format settings, ReFrames : 5 frames
Codec ID : V_MPEG4/ISO/AVC
Duration : 2h 26mn
Bit rate : 4 582 Kbps
Width : 1 280 pixels
Height : 720 pixels
Display aspect ratio : 16:9
Frame rate mode : Constant
Frame rate : 23.976 fps
Color space : YUV
Chroma subsampling : 4:2:0
Bit depth : 8 bits
Scan type : Progressive
Bits/(Pixel*Frame) : 0.207
Stream size : 4.68 GiB (81%)
Language : English
Default : Yes
Forced : No
Audio #1
ID : 1
Format : MPEG Audio
Format version : Version 1
Format profile : Layer 3
Mode : Joint stereo
Codec ID : A_MPEG/L3
Codec ID/Hint : MP3
Duration : 2h 26mn
Bit rate mode : Constant
Bit rate : 320 Kbps
Channel(s) : 2 channels
Sampling rate : 48.0 KHz
Compression mode : Lossy
Stream size : 335 MiB (6%)
Language : Russian
Default : Yes
Forced : No
Audio #3
ID : 3
Format : AC-3
Format/Info : Audio Coding 3
Mode extension : CM (complete main)
Format settings, Endianness : Big
Codec ID : A_AC3
Duration : 2h 26mn
Bit rate mode : Constant
Bit rate : 640 Kbps
Channel(s) : 6 channels
Channel positions : Front: L C R, Side: L R, LFE
Sampling rate : 48.0 KHz
Bit depth : 16 bits
Compression mode : Lossy
Stream size : 669 MiB (11%)
Language : English
Default : No
Forced : No
Text #4
ID : 4
Format : UTF-8
Codec ID : S_TEXT/UTF8
Codec ID/Info : UTF-8 Plain Text
Language : English
Default : No
Forced : No
Text #5
ID : 5
Format : UTF-8
Codec ID : S_TEXT/UTF8
Codec ID/Info : UTF-8 Plain Text
Language : English
Default : No
Forced : No
Свернуть
Скриншоты
Изображение
Изображение
Изображение
Изображение
Изображение
Свернуть

Изображение
_________________

ИзображениеПравила Создание релизов от А до Я
Не в сети
Профиль  
 Добавлено: 2014-01-20 02:37 (спустя 2 часа)
Аватара пользователя
Стаж: 7 лет 4 месяца
Возраст: 25
Сообщений: 2654
Спасибок: 534
Лайков: 81
Когда нормальный звук будет? Если не скоро то придется качать такую!
_________________
Заработок кредитов для онлайн игр
Не в сети
Профиль  
 Добавлено: 2014-01-20 09:16 (спустя 6 часов)
Модератор
Аватара пользователя
Стаж: 8 лет 2 месяца
Возраст: 30
Сообщений: 3200
Спасибок: 2960
Лайков: 206
eminrap
А чёрт его знает, такое качество тоже никто не ожидал столь рано, но янки молодцы - сами у себя спиратили. :-D
_________________

ИзображениеПравила Создание релизов от А до Я
Не в сети
Профиль  
Начать новую темуОтветить на тему  [ Сообщений: 3 ] 
Вы не можете начинать темы
Вы не можете отвечать на сообщения
Вы не можете редактировать свои сообщения
Вы не можете удалять свои сообщения