Правила форума

Здесь находятся раздачи, на которых не было полного источника (сида) более месяца.
Вы можете вернуть релиз в соответствующий раздел, для этого напишите нам в специальной теме и встаньте на раздачу.
Новые релизы, повторяющие релизы в архиве, повторами не считаются.
Начать новую темуОтветить на тему  [ Сообщений: 2 ] 
Сообщения
 Добавлено: 2014-09-26 09:24
DVD Release Group
Аватара пользователя
Стаж: 7 лет 1 месяц
Сообщений: 3550
Спасибок: 247138
Лайков: 1018
Город грехов 2: Женщина, ради которой стоит убивать

Sin City: A Dame to Kill For


Изображение


Год выпуска: 2014
Страна: США
Жанр: Боевик, триллер, криминал
Продолжительность: 01:42:46
Перевод: Профессиональный (полное дублирование)
Субтитры: Нет
Режиссер: Фрэнк Миллер, Роберт Родригес
В ролях: Ева Грин, Микки Рурк, Джош Бролин, Джессика Альба, Джозеф Гордон-Левитт, Розарио Доусон, Пауэрс Бут, Деннис Хейсбёрт, Джейми Чунг, Брюс Уиллис
Описание: В темных переулках Города Грехов Дуайт планирует жестоко отомстить женщине по имени Ава Лорд, которая его предала, в то время как Нэнси пытается смириться со смертью детектива Хартигана.
Изображение
Sample:
http://multi-up.com/1001533
Качество: BDRip 1080p
Формат: MKV
Видео кодек: H.264
Аудио кодек: DTS
Видео: 1920x1036 24fps 7557kbps
Аудио: 48kHz 6ch 1510kbps
"MediaInfo"
Формат : Matroska
Версия формата : Version 2
Размер файла : 6,64 Гбайт
Продолжительность : 1 ч. 42 м.
Общий поток : 9251 Кбит/сек
Дата кодирования : UTC 2014-09-25 22:57:03
Программа кодирования : mkvmerge v7.2.0 ('On Every Street') 64bit built on Sep 13 2014 15:52:10
Библиотека кодирования : libebml v1.3.0 + libmatroska v1.4.1
DURATION : 01:42:45.963000000
NUMBER_OF_FRAMES : 578059
NUMBER_OF_BYTES : 1163632767
_STATISTICS_WRITING_APP : mkvmerge v7.2.0 ('On Every Street') 64bit built on Sep 13 2014 15:52:10
_STATISTICS_WRITING_DATE_UTC : 2014-09-25 22:57:03
_STATISTICS_TAGS : BPS DURATION NUMBER_OF_FRAMES NUMBER_OF_BYTES

Видео
Идентификатор : 1
Формат : AVC
Формат/Информация : Advanced Video Codec
Профиль формата : High@L4.1
Параметр CABAC формата : Да
Параметр ReFrames формата : 4 кадра
Идентификатор кодека : V_MPEG4/ISO/AVC
Продолжительность : 1 ч. 42 м.
Битрейт : 7557 Кбит/сек
Ширина : 1920 пикселей
Высота : 1036 пикселей
Соотношение сторон : 1,85:1
Режим частоты кадров : Постоянный
Частота кадров : 24,000 кадра/сек
Цветовое пространство : YUV
Субдискретизация насыщенности : 4:2:0
Битовая глубина : 8 бит
Тип развёртки : Прогрессивная
Бит/(Пиксели*Кадры) : 0.158
Размер потока : 5,42 Гбайт (82%)
Библиотека кодирования : x264 core 142 r2431+42 c69a006 tMod [8-bit@all X86_64]
Настройки программы : cabac=1 / ref=4 / deblock=1:0:0 / analyse=0x3:0x133 / me=dia / subme=2 / psy=1 / fade_compensate=0.00 / psy_rd=1.00:0.00 / mixed_ref=1 / me_range=16 / chroma_me=1 / trellis=2 / 8x8dct=1 / cqm=0 / deadzone=21,11 / fast_pskip=0 / chroma_qp_offset=-2 / threads=12 / lookahead_threads=6 / sliced_threads=0 / nr=0 / decimate=1 / interlaced=0 / bluray_compat=0 / constrained_intra=0 / fgo=0 / bframes=2 / b_pyramid=2 / b_adapt=2 / b_bias=0 / direct=1 / weightb=1 / open_gop=0 / weightp=2 / keyint=240 / keyint_min=24 / scenecut=40 / intra_refresh=0 / rc=crf / mbtree=0 / crf=18.8000 / qcomp=0.60 / qpmin=0:0:0 / qpmax=69:69:69 / qpstep=4 / ip_ratio=1.40 / pb_ratio=1.30 / aq=1:1.00 / aq-sensitivity=10.00 / aq-factor=1.00:1.00:1.00 / aq2=0 / aq3=0
Язык : English
Default : Да
Forced : Нет
DURATION : 01:42:46.000000000
NUMBER_OF_FRAMES : 147984
NUMBER_OF_BYTES : 5964695017
_STATISTICS_WRITING_APP : mkvmerge v7.2.0 ('On Every Street') 64bit built on Sep 13 2014 15:52:10
_STATISTICS_WRITING_DATE_UTC : 2014-09-25 22:57:03
_STATISTICS_TAGS : BPS DURATION NUMBER_OF_FRAMES NUMBER_OF_BYTES

Аудио
Идентификатор : 2
Формат : DTS
Формат/Информация : Digital Theater Systems
Режим : 16
Параметр Endianness формата : Big
Идентификатор кодека : A_DTS
Продолжительность : 1 ч. 42 м.
Вид битрейта : Постоянный
Битрейт : 1510 Кбит/сек
Каналы : 6 каналов
Расположение каналов : Front: L C R, Side: L R, LFE
Частота : 48,0 КГц
Битовая глубина : 24 бит
Метод сжатия : С потерями
Размер потока : 1,08 Гбайт (16%)
Язык : Russian
Default : Да
Forced : Нет
Свернуть

"Скриншоты"
Изображение
Изображение
Изображение
Изображение
Изображение
Свернуть
В сети
Профиль  
 Добавлено: 2014-09-26 21:27 (спустя 12 часов)
Аватара пользователя
Стаж: 9 лет 1 месяц
Сообщений: 7986
Спасибок: 122220
Лайков: 1191
Сценрип поглощен в пользу качественного рипа
http://nnportal.org/tracker/zarubejnoe- ... 35764.html
Не в сети
Профиль  
Начать новую темуОтветить на тему  [ Сообщений: 2 ] 
Вы не можете начинать темы
Вы не можете отвечать на сообщения
Вы не можете редактировать свои сообщения
Вы не можете удалять свои сообщения