Правила форума

Здесь находятся раздачи, на которых не было полного источника (сида) более месяца.
Вы можете вернуть релиз в соответствующий раздел, для этого напишите нам в специальной теме и встаньте на раздачу.
Новые релизы, повторяющие релизы в архиве, повторами не считаются.
Начать новую темуОтветить на тему  [ 1 сообщение ] 
Сообщения
 Добавлено: 2011-02-22 21:04
Bumblebee
Аватара пользователя
Стаж: 7 лет 9 месяцев
Сообщений: 8249
Спасибок: 346370
Лайков: 2732
Изображение

Город воров / The Town


Год выпуска: 2010
Страна: США
Слоган: «Добро пожаловать в криминальную столицу Америки»

Жанр: триллер, драма, криминал
Продолжительность: 02:04:44
Перевод: Профессиональный (полное дублирование) Лицензия

Режиссер: Бен Аффлек / Ben Affleck
Сценарий: Питер Крэйг / Peter Craig, Бен Аффлек / Ben Affleck, Аарон Стокард / Aaron Stockard, Чак Хоган / Chuck Hogan
Продюсер: Бэзил Иваник / Basil Iwanyk, Грэм Кинг / Graham King, Чай Картер / Chay Carter, Дэвид Крокетт / David Crockett, Уильям Фэй / William Fay
Оператор: Роберт Элсвит / Robert Elswit
Композитор: Дэвид Баккли / David Buckley, Гарри Грегсон-Уильямс / Harry Gregson-Williams

В ролях: Бен Аффлек (Doug MacRay), Ребекка Холл (Claire Keesey), Джон Хэмм (FBI S.A. Adam Frawley), Джереми Реннер (James Coughlin), Блейк Лайвли (Krista Coughlin), Слэйн (Albert 'Gloansy' Magloan), Оуэн Бурк (Desmond Elden), Титус Уэлливер (Dino Ciampa), Пит Постлетуэйт (Fergus 'Fergie' Colm), Крис Купер (Stephen MacRay), Дэннис МакЛафлин (Rusty), Корена Чейз (Agent Quinlan)
Дублёры: Всеволод Кузнецов (Doug MacRay), Ирина Киреева (Claire Keesey), Алексей Рязанцев (FBI S.A. Adam Frawley), Андрей Бархударов (James Coughlin), Татьяна Шитова (Krista Coughlin), Александр Коврижных (Albert 'Gloansy' Magloan), Антон Эльдаров (Desmond Elden), Игорь Тарадайкин (Dino Ciampa), Рудольф Панков (Fergus 'Fergie' Colm), Борис Токарев (Stephen MacRay)
Бюджет: $37 000 000
Сборы в США: $92 186 262
Сборы в России: $1 937 365
Сборы в мире: $144 243 225

Мировая премьера: 8 сентября 2010
Релиз на DVD: 24 февраля 2011, «CP-Digital»
Описание: Профессиональный вор Даг влюбляется в Клэр - работницу банка, которая переживает не лучшие времена. Девушка ничего не знает о преступной жизни Дага, зато о ней догадывается детектив, чье расследование может поставить крест на отношениях Дага и Клэр.
Рейтинг
kinopoisk.ru: 7.535 (9 149)
imdb.com: 7.70 (54 778)
MPAA: R - Лицам до 17 лет обязательно присутствие взрослого
Изображение

Релизит и раздаёт группа: Изображение
Info
General
UniqueID : 210652494594871535354393911211963825579 (0x9E7A31D92BB9301EA3327D8B55CDBDAB)
Complete name : Gorod.vorov.2010.D.BDRip.720p.ELEKTRI4KA.mkv
Format : Matroska
File size : 5.72 GiB
Duration : 2h 4mn
Overall bit rate : 6 561 Kbps
Encoded date : UTC 2011-02-22 12:52:25
Writing application : mkvmerge v3.4.0 ('Rapunzel') built on May 15 2010 09:38:20
Writing library : libebml v0.8.0 + libmatroska v0.9.0

Video
ID : 1
Format : AVC
Format/Info : Advanced Video Codec
Format profile : High@L4.1
Format settings, CABAC : Yes
Format settings, ReFrames : 11 frames
Codec ID : V_MPEG4/ISO/AVC
Duration : 2h 4mn
Bit rate : 4 667 Kbps
Width : 1 280 pixels
Height : 534 pixels
Display aspect ratio : 2.35:1
Frame rate : 23.976 fps
Color space : YUV
Chroma subsampling : 4:2:0
Bit depth : 8 bits
Scan type : Progressive
Bits/(Pixel*Frame) : 0.285
Stream size : 3.95 GiB (69%)
Writing library : x264 core 110 r1820 fdcf2ae
Encoding settings : cabac=1 / ref=11 / deblock=1:-3:-3 / analyse=0x3:0x133 / me=umh / subme=10 / psy=1 / psy_rd=0.90:0.00 / mixed_ref=1 / me_range=32 / chroma_me=1 / trellis=2 / 8x8dct=1 / cqm=0 / deadzone=21,11 / fast_pskip=1 / chroma_qp_offset=-2 / threads=6 / sliced_threads=0 / nr=0 / decimate=1 / interlaced=0 / constrained_intra=0 / bframes=6 / b_pyramid=2 / b_adapt=2 / b_bias=0 / direct=3 / weightb=1 / open_gop=0 / weightp=2 / keyint=250 / keyint_min=23 / scenecut=40 / intra_refresh=0 / rc_lookahead=40 / rc=2pass / mbtree=1 / bitrate=4667 / ratetol=1.0 / qcomp=0.60 / qpmin=0 / qpmax=51 / qpstep=4 / cplxblur=20.0 / qblur=0.5 / ip_ratio=1.40 / aq=1:1.00
Language : English

Audio #1
ID : 2
Format : AC-3
Format/Info : Audio Coding 3
Mode extension : CM (complete main)
Codec ID : A_AC3
Duration : 2h 4mn
Bit rate mode : Constant
Bit rate : 384 Kbps
Channel(s) : 6 channels
Channel positions : Front: L C R, Side: L R, LFE
Sampling rate : 48.0 KHz
Bit depth : 16 bits
Compression mode : Lossy
Stream size : 343 MiB (6%)
Title : Russian @ DD 5.1 @ 384 kbps
Language : Russian

Audio #2
ID : 3
Format : DTS
Format/Info : Digital Theater Systems
Codec ID : A_DTS
Duration : 2h 4mn
Bit rate mode : Constant
Bit rate : 1 510 Kbps
Channel(s) : 6 channels
Channel positions : Front: L C R, Side: L R, LFE
Sampling rate : 48.0 KHz
Bit depth : 24 bits
Compression mode : Lossy
Stream size : 1.32 GiB (23%)
Title : English @ DTS 5.1 @ 1510 kbps
Language : English

Text #1
ID : 4
Format : UTF-8
Codec ID : S_TEXT/UTF8
Codec ID/Info : UTF-8 Plain Text
Title : Russian (forced)
Language : Russian

Text #2
ID : 5
Format : UTF-8
Codec ID : S_TEXT/UTF8
Codec ID/Info : UTF-8 Plain Text
Title : Russian
Language : Russian

Text #3
ID : 6
Format : ASS
Codec ID : S_TEXT/ASS
Codec ID/Info : Advanced Sub Station Alpha
Compression mode : Lossless
Title : English
Language : English

Menu
00:00:00.000 : en:00:00:00.000
00:10:13.530 : en:00:10:13.530
00:17:50.736 : en:00:17:50.736
00:29:19.216 : en:00:29:19.216
00:38:45.823 : en:00:38:45.823
00:50:42.623 : en:00:50:42.623
00:58:40.934 : en:00:58:40.934
01:09:08.061 : en:01:09:08.061
01:17:31.272 : en:01:17:31.272
01:28:09.117 : en:01:28:09.117
01:37:58.664 : en:01:37:58.664
01:48:42.307 : en:01:48:42.307
01:57:48.270 : en:01:57:48.270

Свернуть
Качество: BDRip R5
Формат: MKV (H.264)

Видео: 4667 kb/s, 1280x534
Аудио: Russian: AC3, 384 kb/s (6 ch) / English: DTS, 1510 kb/s (6 ch)
Субтитры:Russian (forced), Russian, English
"Знаете ли Вы, что..."
  • Поставлялся в кинотеатры под кодовым названием «Сriminal intent» («Преступный умысел»).
  • Чтобы вжиться в образ, Джереми Реннер общался с осуждёнными за ограбления преступниками родом из Чарльстауна. От них он, в частности, перенял специфический акцент.
  • Свой режиссёрский дебют – драму «Прощай, детка, прощай» – Бен Аффлек также снимал в Бостоне.
  • Все полицейские машины, показанные в фильме, относятся к вымышленному отделу A-8.
Свернуть
"Скриншоты"

Изображение
Изображение
Изображение
Свернуть
Не в сети
Профиль  
Начать новую темуОтветить на тему  [ 1 сообщение ] 
Вы не можете начинать темы
Вы не можете отвечать на сообщения
Вы не можете редактировать свои сообщения
Вы не можете удалять свои сообщения