Правила форума

Здесь находятся раздачи, на которых не было полного источника (сида) более месяца.
Вы можете вернуть релиз в соответствующий раздел, для этого напишите нам в специальной теме и встаньте на раздачу.
Новые релизы, повторяющие релизы в архиве, повторами не считаются.
Начать новую темуОтветить на тему  [ Сообщений: 4 ] 
Сообщения
 Добавлено: 2014-09-10 22:42
DVD Release Group
Аватара пользователя
Стаж: 7 лет 1 месяц
Сообщений: 3569
Спасибок: 247659
Лайков: 1020
Грань будущего

Edge of Tomorrow


Изображение


Год выпуска: 2014
Страна: США, Австралия
Жанр: Фантастика, боевик
Продолжительность: 01:53:27
Перевод: Профессиональный (полное дублирование)
Режиссер: Даг Лайман
В ролях: Том Круз, Эмили Блант, Брендан Глисон, Билл Пэкстон, Джонас Армстронг, Тони Вэй, Кик Гарри, Франц Драмех, Драгомир Мрсич, Шарлотта Райли
Описание: История разворачивается в недалеком будущем, когда похожая на рой раса инопланетян, названных мимиками, совершает безжалостное нападение на Землю, стерев в пыль крупные города и уничтожив миллионы жизней. Армии Земли объединят силы, чтобы вступить в последний бой с полчищами инопланетян, зная, что второго шанса у них не будет.
Изображение
Sample:
http://multi-up.com/997871
Качество: WEB-DL 720p
Формат: MKV
Видео кодек: H.264
Аудио кодек: AC3
Видео: 1280x532 23.98fps 4192kbps
Аудио:
Audio Rus: 48kHz 6ch 384kbps
Audio Eng: 48kHz 6ch 384kbps
"MediaInfo"
Формат : Matroska
Версия формата : Version 4 / Version 2
Размер файла : 4,01 Гбайт
Продолжительность : 1 ч. 53 м.
Общий поток : 5060 Кбит/сек
Дата кодирования : UTC 2014-09-10 18:46:39
Программа кодирования : mkvmerge v6.5.0 ('Isn't she lovely') built on Oct 20 2013 12:50:05
Библиотека кодирования : libebml v1.3.0 + libmatroska v1.4.1
DURATION : 01:53:27.520000000
NUMBER_OF_FRAMES : 212735
NUMBER_OF_BYTES : 326760960
_STATISTICS_WRITING_APP : mkvmerge v7.1.0 ('Good Love') 64bit built on Jul 27 2014 13:06:55
_STATISTICS_WRITING_DATE_UTC : 2014-09-09 05:48:41
_STATISTICS_TAGS : BPS DURATION NUMBER_OF_FRAMES NUMBER_OF_BYTES

Видео
Идентификатор : 1
Формат : AVC
Формат/Информация : Advanced Video Codec
Профиль формата : Main@L3.1
Параметр CABAC формата : Нет
Параметр ReFrames формата : 2 кадра
Параметр GOP формата : N=1
Идентификатор кодека : V_MPEG4/ISO/AVC
Продолжительность : 1 ч. 53 м.
Битрейт : 4192 Кбит/сек
Ширина : 1280 пикселей
Высота : 532 пикселя
Соотношение сторон : 2,40:1
Режим частоты кадров : Постоянный
Частота кадров : 23,976 кадра/сек
Цветовое пространство : YUV
Субдискретизация насыщенности : 4:2:0
Битовая глубина : 8 бит
Тип развёртки : Прогрессивная
Бит/(Пиксели*Кадры) : 0.257
Размер потока : 3,32 Гбайт (83%)
Язык : English
Default : Да
Forced : Нет
Основные цвета : BT.709
Характеристики трансфера : BT.709
Коэффициенты матрицы : BT.709

Аудио #1
Идентификатор : 2
Формат : AC-3
Формат/Информация : Audio Coding 3
Расширение режима : CM (complete main)
Параметр Endianness формата : Big
Идентификатор кодека : A_AC3
Продолжительность : 1 ч. 53 м.
Вид битрейта : Постоянный
Битрейт : 384 Кбит/сек
Каналы : 6 каналов
Расположение каналов : Front: L C R, Side: L R, LFE
Частота : 48,0 КГц
Битовая глубина : 16 бит
Метод сжатия : С потерями
Размер потока : 312 Мбайт (8%)
Язык : Russian
Default : Да
Forced : Нет

Аудио #2
Идентификатор : 3
Формат : AC-3
Формат/Информация : Audio Coding 3
Расширение режима : CM (complete main)
Параметр Endianness формата : Big
Идентификатор кодека : A_AC3
Продолжительность : 1 ч. 53 м.
Вид битрейта : Постоянный
Битрейт : 384 Кбит/сек
Каналы : 6 каналов
Расположение каналов : Front: L C R, Side: L R, LFE
Частота : 48,0 КГц
Битовая глубина : 16 бит
Метод сжатия : С потерями
Размер потока : 312 Мбайт (8%)
Язык : English
Default : Нет
Forced : Нет

Меню
00:00:00.000 : en:1.
00:10:25.000 : en:2.
00:17:36.000 : en:3.
00:24:46.000 : en:4.
00:35:53.000 : en:5.
00:46:22.000 : en:6.
00:54:29.000 : en:7.
01:04:53.000 : en:8.
01:12:46.000 : en:9.
01:23:01.000 : en:10.
01:32:26.000 : en:11.
01:42:45.000 : en:12.
01:45:37.000 : en:13.
Свернуть

"Скриншоты"
Изображение
Изображение
Изображение
Изображение
Свернуть
 ronzhin нравится это.
Не в сети
Профиль  
 Добавлено: 2014-09-10 22:51 (спустя 9 минут)
Аватара пользователя
Стаж: 5 лет 2 месяца
Возраст: 34
Сообщений: 1280
Лайков: 20
то что надо
Не в сети
Профиль  
 Добавлено: 2014-09-13 10:17 (спустя 2 дня 11 часов)
Стаж: 5 лет 6 месяцев
Сообщений: 99
Лайков: 5
кино понравилось, спасибо! :)
Не в сети
Профиль  
 Добавлено: 2014-09-14 20:28 (спустя 1 день 10 часов)
Стаж: 7 лет 5 месяцев
Сообщений: 25
спасибо :co_ol: :co_ol: :co_ol: :-ok-:
Не в сети
Профиль  
Начать новую темуОтветить на тему  [ Сообщений: 4 ] 
Вы не можете начинать темы
Вы не можете отвечать на сообщения
Вы не можете редактировать свои сообщения
Вы не можете удалять свои сообщения