Правила форума

Здесь находятся раздачи, на которых не было полного источника (сида) более месяца.
Вы можете вернуть релиз в соответствующий раздел, для этого напишите нам в специальной теме и встаньте на раздачу.
Новые релизы, повторяющие релизы в архиве, повторами не считаются.
Начать новую темуОтветить на тему  [ 1 сообщение ] 
Сообщения
 Добавлено: 2014-01-23 22:36
Аватара пользователя
Стаж: 3 года 6 месяцев
Сообщений: 175
Спасибок: 4258
Лайков: 29
Грязь / Filth

«This Little Piggy went to town!»

Изображение


Год выпуска: 2013
Страна: Великобритания
Жанр: криминал, драма, комедия
Продолжительность: 01:37:23
Перевод: Профессиональный (дубляж) [Лицензия]

Режиссёр: Джон С. Бейрд
В ролях: Джеймс МакЭвой, Джейми Белл, Эдди Марсан, Джим Бродбент, Имоджен Путс, Шона МакДональд, Ширли Хендерсон, Джон Сессионс, Гари Льюис, Иман Эллиотт
Описание: Главный герой — продажный шотландский полицейский Брюс Робертсон, помешанный на сексе и кокаине. Ему бы надо расследовать убийство, но ему сильно мешают собственные странности, привычка разыгрывать коллег и беготня за девушками. За Робертсоном присматривают его напарник Рэй Леннокс и начальник Боб Тоал.
Изображение

Качество: BDRip (1080p)
Формат: MKV
Видео кодек: AVC
Аудио кодек: AC3 (Dolby Digital), DTS
Видео: MPEG-4 AVC, 10,3 Мбит/с, 1920x816, 24.000 Кадр/с
Аудио #1: Русский (AC3, 6 ch, 384 Кбит/c, 48,0 КГц)
Аудио #2: Английский (DTS, 6 ch, 768 Кбит/c, 48,0 КГц)

Изображение
Скриншоты
Изображение
Изображение
Изображение
Изображение
Изображение
Свернуть

Знаете ли Вы, что...
Фильм снят по мотивам романа Ирвина Уэлша «Дерьмо» (Filth, 1998).

В ранних версиях сценария в машине должны были петь песню «I Wanna Know What Love Is» группы Foreigner. Но Ирвин Уэлш выбрал «Silver Lady».

Одна из певиц в машине Дэвида Соула во время исполнения песни «Silver Lady» — это его дочь Хина Соул.

Комната, в которой проходит консультация Брюса с доктором, очень похожа на комнату из фильма «2001 год: Космическая одиссея» (1968).

В сцене, где больного Брюса тошнит, исполняющего его роль Джеймса МакЭвоя рвало по-настоящему.
Свернуть
MI
General
Unique ID : 248219926419260001118500818797466719686 (0xBABD6B3D9576F1F08C3ABC08BA8F95C6)
Complete name : F:\ФИЛЬМЫ\Filth.2013.x264.BluRay.1080p.Rus.Eng.mkv
Format : Matroska
Format version : Version 1
File size : 7.96 GiB
Duration : 1h 37mn
Overall bit rate : 11.7 Mbps
Movie name : FiREBiT.ORG
Encoded date : UTC 2014-01-23 12:44:55
Writing application : mkvmerge v2.3.0 ('Freak U') built on Sep 8 2008 18:32:16
Writing library : libebml v0.7.7 + libmatroska v0.8.1

Video
ID : 1
Format : AVC
Format/Info : Advanced Video Codec
Format profile : High@L4.1
Format settings, CABAC : Yes
Format settings, ReFrames : 5 frames
Codec ID : V_MPEG4/ISO/AVC
Duration : 1h 37mn
Bit rate : 10.3 Mbps
Width : 1 920 pixels
Height : 816 pixels
Display aspect ratio : 2.35:1
Frame rate mode : Constant
Frame rate : 24.000 fps
Color space : YUV
Chroma subsampling : 4:2:0
Bit depth : 8 bits
Scan type : Progressive
Bits/(Pixel*Frame) : 0.274
Stream size : 7.02 GiB (88%)
Title : http://firebit.org
Language : English
Default : Yes
Forced : No

Audio #1
ID : 2
Format : AC-3
Format/Info : Audio Coding 3
Mode extension : CM (complete main)
Format settings, Endianness : Big
Codec ID : A_AC3
Duration : 1h 37mn
Bit rate mode : Constant
Bit rate : 384 Kbps
Channel(s) : 6 channels
Channel positions : Front: L C R, Side: L R, LFE
Sampling rate : 48.0 KHz
Bit depth : 16 bits
Compression mode : Lossy
Stream size : 267 MiB (3%)
Title : http://firebit.org
Language : Russian
Default : Yes
Forced : No

Audio #2
ID : 3
Format : DTS
Format/Info : Digital Theater Systems
Mode : 16
Format settings, Endianness : Big
Codec ID : A_DTS
Duration : 1h 37mn
Bit rate mode : Constant
Bit rate : 768 Kbps
Channel(s) : 6 channels
Channel positions : Front: L C R, Side: L R, LFE
Sampling rate : 48.0 KHz
Bit depth : 24 bits
Compression mode : Lossy
Stream size : 535 MiB (7%)
Title : http://firebit.org
Language : English
Default : No
Forced : No

Text
ID : 4
Format : UTF-8
Codec ID : S_TEXT/UTF8
Codec ID/Info : UTF-8 Plain Text
Title : http://firebit.org
Language : English
Default : Yes
Forced : No

Menu
00:00:00.000 : en:00:00:00.000
00:08:15.500 : en:00:08:15.500
00:15:56.792 : en:00:15:56.792
00:24:38.667 : en:00:24:38.667
00:32:36.125 : en:00:32:36.125
00:40:55.917 : en:00:40:55.917
00:48:00.458 : en:00:48:00.458
00:56:09.000 : en:00:56:09.000
01:03:43.833 : en:01:03:43.833
01:14:07.708 : en:01:14:07.708
01:19:14.958 : en:01:19:14.958
01:28:19.167 : en:01:28:19.167
Свернуть
Не в сети
Профиль  
Начать новую темуОтветить на тему  [ 1 сообщение ] 
Вы не можете начинать темы
Вы не можете отвечать на сообщения
Вы не можете редактировать свои сообщения
Вы не можете удалять свои сообщения