Правила форума

Здесь находятся раздачи, на которых не было полного источника (сида) более месяца.
Вы можете вернуть релиз в соответствующий раздел, для этого напишите нам в специальной теме и встаньте на раздачу.
Новые релизы, повторяющие релизы в архиве, повторами не считаются.
Начать новую темуОтветить на тему  [ Сообщений: 3 ] 
Сообщения
 Добавлено: 2010-10-13 13:58
Аватара пользователя
Стаж: 7 лет 8 месяцев
Сообщений: 407
Спасибок: 9110
Лайков: 6
Хаос / Chaos

Изображение

Год выхода:2005
Страна:США,Канада,Великобритания,Mobius Entertainment,Chaotic Films UK Production,Mark Williams Entertainment
Слоган:«Кто у нас тут крыса?»
Жанр:Боевик, триллер, драма, криминал
Продолжительность:01:41:59
Перевод: Профессиональный (дублированный)
Субтитры:Русские
Режиссер:Тони Джиглио / Tony Giglio

В ролях: Джейсон Стэтхэм, Райан Филипп, Уэсли Снайпс, Генри Черни, Джастин Уоддэлл, Николас Лиа, Джессика Стин, Роб ЛаБелль, Джон Кассини, Дэймон Джонсон
Описание: Самым обычным утром банда грабителей захватывает банк и берет в заложники всех, кто в нем находится. Полиция окружает здание банка. Вожак банды Лоренц требует вызвать переговорщика, настаивая на том, что им может быть только детектив Коннерс. А так как Коннерс числится в полиции "на плохом счету", к нему приставляют напарника - новичка Деккера.
Пока Коннерс ведет переговоры, в банк врывается полицейский спецназ. В начавшемся хаосе грабителям удается смешаться с заложниками и выскользнуть из банка. Но самым странным оказалось то, что грабители не унесли с собой ни единого цента. А вскоре выясняется, что во время осады и перестрелки с банковских счетов компьютерным способом был снят миллиард долларов. Распутывая это дело, Коннерс и Деккер нащупывают нити заговора, ведущие на самый "верх"....
Доп.информация:
Диск сжат DVD Rebuilder+CCE в девять проходов на 19,5%, титры на 90%. Удалены реклама, допы и английская ac3 и дтс дорожки. Меню отредактировано. Меню аудио скрыто.
Качество: DVD5 сжатый
Формат: DVD Video
Видеокодек: MPEG2
Аудиокодек: AC3
Видео:MPEG2 Video 720x576 (4:3) 25.00fps 7408kbps
Аудио:Dolby AC3 48000Hz 6ch 448kbps
MediaInfo
Format : MPEG-PS
File size : 1 024 MiB
Duration : 23mn 11s
Overall bit rate : 6 175 Kbps

Video
ID : 224 (0xE0)
Format : MPEG Video
Format version : Version 2
Format profile : Main@Main
Format settings, BVOP : Yes
Format settings, Matrix : Default
Format_Settings_GOP : M=3, N=12
Duration : 23mn 11s
Bit rate mode : Variable
Bit rate : 5 482 Kbps
Nominal bit rate : 7 409 Kbps
Width : 720 pixels
Height : 576 pixels
Display aspect ratio : 4:3
Frame rate : 25.000 fps
Standard : PAL
Resolution : 8 bits
Colorimetry : 4:2:0
Scan type : Interlaced
Scan order : Top Field First
Bits/(Pixel*Frame) : 0.529
Stream size : 909 MiB (89%)

Audio
ID : 128 (0x80)
Format : AC-3
Format/Info : Audio Coding 3
Duration : 23mn 11s
Bit rate mode : Constant
Bit rate : 448 Kbps
Channel(s) : 6 channels
Channel positions : Front: L C R, Side: L R, LFE
Sampling rate : 48.0 KHz
Video delay : -304ms
Stream size : 74.3 MiB (7%)

Text
ID : 32 (0x20)
Format : RLE
Format/Info : Run-length encoding
Video delay : -40ms

Menu


Свернуть

Скриншоты
Meню
Изображение
Изображение
Свернуть
Изображение
Изображение
Изображение
Изображение
Изображение
Изображение

Свернуть
Не в сети
Профиль  
 Добавлено: 2010-10-24 14:34 (спустя 11 дней)
Пользователь забанен
Аватара пользователя
Стаж: 6 лет 7 месяцев
Сообщений: 5132
Спасибок: 521
прикольный фильм)) :co_ol:
P.S.спасибку нажал
_________________
ИзображениеИзображение
цитаты
Наши не умееют делать нормально НИЧЕГО, все чем мы довольствуемся было сделано 50 а то и больше лет назад... после чего они 50 лет пытаются улучшить то что изначально не было хорошим... Я горд что я живу в этой такой стране xD
Свернуть
https://www.playfire.com/bf3-vs-mw3/46c7803523993b70
Не в сети
Профиль  
 Добавлено: 2011-02-05 15:45 (спустя 3 месяца 12 дней)
Аватара пользователя
Стаж: 7 лет 8 месяцев
Сообщений: 407
Спасибок: 9110
Лайков: 6
Да замутка не плохая!
Не в сети
Профиль  
Начать новую темуОтветить на тему  [ Сообщений: 3 ] 
Вы не можете начинать темы
Вы не можете отвечать на сообщения
Вы не можете редактировать свои сообщения
Вы не можете удалять свои сообщения