Правила форума

Здесь находятся раздачи, на которых не было полного источника (сида) более месяца.
Вы можете вернуть релиз в соответствующий раздел, для этого напишите нам в специальной теме и встаньте на раздачу.
Новые релизы, повторяющие релизы в архиве, повторами не считаются.
Начать новую темуОтветить на тему  [ Сообщений: 13 ] 
Сообщения
 Добавлено: 2013-02-28 07:30
DVD Release Group
Аватара пользователя
Стаж: 7 лет 1 месяц
Сообщений: 3569
Спасибок: 247804
Лайков: 1020
Хоббит: Нежданное путешествие

The Hobbit: An Unexpected Journey


Изображение


Год выпуска: 2012
Страна: США , Новая Зеландия
Жанр: Фэнтези, приключения
Продолжительность: 02:49:37
Перевод: Профессиональный (полное дублирование) Чистый звук
Примечание: Перевод наложен на оригинальную озвучку.

Режиссер: Питер Джексон
В ролях: Мартин Фриман, Иэн МакКеллен, Ричард Армитэдж, Джеймс Несбитт, Кен Стотт, Кейт Бланшетт, Элайджа Вуд, Хьюго Уивинг, Кристофер Ли, Энди Серкис
Описание: Фильм повествует о путешествии Бильбо Бэггинса, который пускается в грандиозный поход, целью которого является отвоевание утраченного королевства гномов Эребор у зловещего дракона Смога. Совершенно неожиданно с хоббитом налаживает контакт волшебник Гэндальф Серый. Так Бильбо находит себя, присоединяясь к компании тринадцати гномов, возглавляемых легендарным воином, Торином Дубощитом. Их путешествие проляжет через Дикий Край, через предательские земли, населенные гоблинами и орками, смертоносными варгами и гигантскими пауками, народом, меняющим шкуры, и волшебниками. И хотя их цель находится на Востоке среди пустошей Одинокой Горы, сначала им придется выбраться из туннелей гоблинов, где Бильбо встретит существо, которое изменит его жизнь навсегда… Голлума. Здесь, один на один с Голлумом, на берегу подземного озера, непритязательный Бильбо Бэггинс обнаружит не только скрытые в глубине души хитрость и отвагу, которые удивят даже его, но и завладеет «прелестным» колечком Голлума, которое обладает нежданными и полезными свойствами… Простое золотое кольцо, c которым связана судьба всего Средиземья, нитями, о которых Бильбо не мог даже вообразить.
Изображение
Качество: BDRip 720p
Формат: MKV
Видео кодек: H.264
Аудио кодек: AC3, DTS
Видео: 1280x536 23.98fps 4020Kbps
Аудио:
Audio Rus: AC3 48kHz 2ch 224kbps
Audio Eng: DTS 48kHz 6ch 1510kbps
"MediaInfo"
Формат : Matroska
Версия формата : Version 2
Размер файла : 6,82 Гбайт
Продолжительность : 2 ч. 49 м.
Общий поток : 5755 Кбит/сек
Дата кодирования : UTC 2013-02-28 02:35:51
Программа кодирования : mkvmerge v5.5.0 ('Healer') built on Apr 6 2012 21:43:24
Библиотека кодирования : libebml v1.2.3 + libmatroska v1.3.0

Видео
Идентификатор : 1
Формат : AVC
Формат/Информация : Advanced Video Codec
Профиль формата : High@L4.1
Параметр CABAC формата : Да
Параметр ReFrames формата : 5 кадров
Идентификатор кодека : V_MPEG4/ISO/AVC
Продолжительность : 2 ч. 49 м.
Битрейт : 4020 Кбит/сек
Ширина : 1280 пикселей
Высота : 536 пикселей
Соотношение сторон : 2,40:1
Частота кадров : 23,976 кадра/сек
Цветовое пространство : YUV
Субдискретизация насыщенности : 4:2:0
Битовая глубина : 8 бит
Тип развёртки : Прогрессивная
Бит/(Пиксели*Кадры) : 0.244
Размер потока : 4,63 Гбайт (68%)
Библиотека кодирования : x264 core 129 r2245 bc13772
Настройки программы : cabac=1 / ref=5 / deblock=1:0:0 / analyse=0x3:0x133 / me=umh / subme=7 / psy=1 / psy_rd=1.00:0.00 / mixed_ref=1 / me_range=16 / chroma_me=1 / trellis=1 / 8x8dct=1 / cqm=0 / deadzone=21,11 / fast_pskip=0 / chroma_qp_offset=-2 / threads=12 / lookahead_threads=2 / sliced_threads=0 / nr=0 / decimate=1 / interlaced=0 / bluray_compat=0 / constrained_intra=0 / bframes=3 / b_pyramid=2 / b_adapt=1 / b_bias=0 / direct=1 / weightb=1 / open_gop=0 / weightp=2 / keyint=250 / keyint_min=23 / scenecut=40 / intra_refresh=0 / rc_lookahead=40 / rc=2pass / mbtree=1 / bitrate=4020 / ratetol=1.0 / qcomp=0.60 / qpmin=0 / qpmax=69 / qpstep=4 / cplxblur=20.0 / qblur=0.5 / ip_ratio=1.40 / aq=1:1.00
Язык : English
Default : Да
Forced : Нет

Аудио #1
Идентификатор : 2
Формат : AC-3
Формат/Информация : Audio Coding 3
Расширение режима : CM (complete main)
Идентификатор кодека : A_AC3
Продолжительность : 2 ч. 49 м.
Вид битрейта : Постоянный
Битрейт : 224 Кбит/сек
Каналы : 2 канала
Расположение каналов : Front: L R
Частота : 48,0 КГц
Битовая глубина : 16 бит
Метод сжатия : С потерями
Задержка видео : 1 с. 800 мс.
Размер потока : 272 Мбайт (4%)
Язык : Russian
Default : Да
Forced : Нет

Аудио #2
Идентификатор : 3
Формат : DTS
Формат/Информация : Digital Theater Systems
Идентификатор кодека : A_DTS
Продолжительность : 2 ч. 49 м.
Вид битрейта : Постоянный
Битрейт : 1510 Кбит/сек
Каналы : 6 каналов
Расположение каналов : Front: L C R, Side: L R, LFE
Частота : 48,0 КГц
Битовая глубина : 24 бит
Метод сжатия : С потерями
Размер потока : 1,79 Гбайт (26%)
Заголовок : English
Язык : English
Default : Нет
Forced : Нет

Текст
Идентификатор : 4
Формат : UTF-8
Идентификатор кодека : S_TEXT/UTF8
Идентификатор кодека/Информация : UTF-8 Plain Text
Язык : English
Default : Нет
Forced : Нет

Меню
00:00:00.000 : en:00:00:00.000
00:08:51.531 : en:00:08:51.531
00:12:58.903 : en:00:12:58.903
00:16:34.619 : en:00:16:34.619
00:20:50.666 : en:00:20:50.666
00:25:09.007 : en:00:25:09.007
00:33:14.409 : en:00:33:14.409
00:38:26.804 : en:00:38:26.804
00:43:40.368 : en:00:43:40.368
00:50:12.301 : en:00:50:12.301
00:55:16.939 : en:00:55:16.939
00:57:04.838 : en:00:57:04.838
01:07:51.943 : en:01:07:51.943
01:12:11.369 : en:01:12:11.369
01:16:03.559 : en:01:16:03.559
01:22:06.463 : en:01:22:06.463
01:28:49.991 : en:01:28:49.991
01:32:03.518 : en:01:32:03.518
01:33:42.534 : en:01:33:42.534
01:40:29.607 : en:01:40:29.607
01:43:06.847 : en:01:43:06.847
01:49:12.963 : en:01:49:12.963
01:54:04.588 : en:01:54:04.588
01:56:58.094 : en:01:56:58.094
02:10:27.945 : en:02:10:27.945
02:12:26.021 : en:02:12:26.021
02:13:37.718 : en:02:13:37.718
02:17:59.438 : en:02:17:59.438
02:20:09.359 : en:02:20:09.359
02:22:59.112 : en:02:22:59.112
02:33:58.563 : en:02:33:58.563
02:39:27.558 : en:02:39:27.558
Свернуть

"Скриншоты"
Изображение
Изображение
Изображение
Свернуть

Раздача группы:
Изображение
Не в сети
Профиль  
 Добавлено: 2013-02-28 08:47 (спустя 1 час 17 минут)
Модератор
Аватара пользователя
Стаж: 8 лет 3 месяца
Возраст: 22
Сообщений: 1903
Спасибок: 1500
Лайков: 5
1080 сегодня будет?
Не в сети
Профиль  
 Добавлено: 2013-02-28 09:24 (спустя 37 минут)
Стаж: 5 лет 3 месяца
Сообщений: 150
Лайков: 2
Меня тоже интересует этот вопрос.Будет?
Не в сети
Профиль  
 Добавлено: 2013-02-28 10:16 (спустя 51 минута)
Аватара пользователя
Стаж: 4 года 11 месяцев
Сообщений: 67
только блюрей
Не в сети
Профиль  
 Добавлено: 2013-02-28 10:48 (спустя 32 минуты)
DVD Release Group
Аватара пользователя
Стаж: 7 лет 1 месяц
Сообщений: 3569
Спасибок: 247804
Лайков: 1020
art-gruzdev
09лёшик09
BDRip 1080p есть.
Не в сети
Профиль  
 Добавлено: 2013-02-28 11:25 (спустя 37 минут)
Аватара пользователя
Стаж: 8 лет 10 месяцев
Возраст: 32
Сообщений: 386
Лайков: 4
rastor
а где? на трекере не нашел...
_________________
Быстрый и удобный поиск запчастей для иномарок европейского рынка, запрос цен и наличия запчастей
Схемы узлов лодочных моторов, каталоги запчастей для катеров, гидроциклов, компании по продаже аксессуаров для катеров и ремонту водной техники
Не в сети
Профиль  
 Добавлено: 2013-02-28 11:33 (спустя 7 минут)
DVD Release Group
Аватара пользователя
Стаж: 7 лет 1 месяц
Сообщений: 3569
Спасибок: 247804
Лайков: 1020
COBRA
viewtopic.php?f=1743&t=501191
Не в сети
Профиль  
 Добавлено: 2013-02-28 14:19 (спустя 2 часа 46 минут)
Аватара пользователя
Стаж: 7 лет 1 месяц
Сообщений: 57
rastor
А не Подскажите В 3D Когда Будет?
Не в сети
Профиль  
 Добавлено: 2013-02-28 14:28 (спустя 9 минут)
DVD Release Group
Аватара пользователя
Стаж: 7 лет 1 месяц
Сообщений: 3569
Спасибок: 247804
Лайков: 1020
Gidrid
Скорее всего через месяц.
Не в сети
Профиль  
 Добавлено: 2013-03-03 22:41 (спустя 3 дня)
Аватара пользователя
Стаж: 4 года 11 месяцев
Сообщений: 25
Спасибок: 69
а есть субтитры?
Не в сети
Профиль  
 Добавлено: 2013-03-11 19:11 (спустя 7 дней)
Аватара пользователя
Стаж: 7 лет 5 месяцев
Возраст: 34
Сообщений: 241
Спасибок: 1
Лайков: 2
Когда на Blu-ray ?
Не в сети
Профиль  
 Добавлено: 2013-03-11 19:16 (спустя 5 минут)
DVD Release Group
Аватара пользователя
Стаж: 7 лет 1 месяц
Сообщений: 3569
Спасибок: 247804
Лайков: 1020
csmfronn
Blu-ray есть и в 2D и в 3D.
Не в сети
Профиль  
 Добавлено: 2013-04-03 17:05 (спустя 22 дня)
Руководитель релиз-группы
Аватара пользователя
Стаж: 7 лет 5 месяцев
Возраст: 31
Сообщений: 3406
Спасибок: 46729
Лайков: 5
viewtopic.php?f=1750&t=504683
Не в сети
Профиль  
Начать новую темуОтветить на тему  [ Сообщений: 13 ] 
Вы не можете начинать темы
Вы не можете отвечать на сообщения
Вы не можете редактировать свои сообщения
Вы не можете удалять свои сообщения