Правила форума

Здесь находятся раздачи, на которых не было полного источника (сида) более месяца.
Вы можете вернуть релиз в соответствующий раздел, для этого напишите нам в специальной теме и встаньте на раздачу.
Новые релизы, повторяющие релизы в архиве, повторами не считаются.
Начать новую темуОтветить на тему  [ 1 сообщение ] 
Сообщения
 Добавлено: 2014-03-23 08:44
Top-releaser
Аватара пользователя
Стаж: 8 лет 9 месяцев
Сообщений: 479
Спасибок: 20187
Лайков: 16
Изображение

Изображение

The Hobbit: The Desolation of Smaug


«Beyond darkness... beyond desolation... lies the greatest danger of all»

Год выпуска: 2013
Страна: США, Новая Зеландия; Metro-Goldwyn-Mayer (MGM), New Line Cinema, WingNut Films
Жанр: Фэнтези, приключения
Продолжительность: 02:41:17
Перевод: Профессиональный (дублированный), Оригинал
Субтитры: Русские полные, форсированные (на надписи и речь эльфов, орков...)

Режиссёр: Питер Джексон / Peter Jackson

В ролях: Мартин Фриман, Иэн МакКеллен, Орландо Блум, Эванджелин Лилли, Бенедикт Камбербэтч, Люк Эванс, Элайджа Вуд, Иэн Холм, Кейт Бланшетт, Энди Серкис, Кристофер Ли, Ричард Армитедж, Ли Пейс, Стивен Фрай

Описание: Продолжение путешествия хоббита Бильбо Бэггинса, волшебника Гэндальфа и 13 отважных гномов. Их компания обязана завершить своё путешествие к Одинокой горе. Там они должны встретиться с величайшей опасностью из всех — созданием куда более ужасающим, чем все их прошлые противники, которое проверит на прочность не только их мужество, но крепость их дружбы и правильность выбранного пути, — драконом Смаугом.


Качество: BDRip 1080p
Формат: MKV

Видео: AVC at 9166 Кбит/сек, 1920 x 800 (2.400) at 23.976 fps

Аудио 1: AC-3 at 448 Кбит/сек, 6 каналов, 48,0 КГц [Дубляж] - Дорожка получена наложением выделенного голоса на центр декодированного AC3.
Аудио 2: AC-3 at 640 Кбит/сек, 6 каналов, 48,0 КГц [Оригинал]
Изображение

Изображение
MediaInfo

Общее
Уникальный идентификатор : 252291585759159863464478117325875374813 (0xBDCD978B8BBC91CC9CDAC96AB362EADD)
Полное имя : C:\Users\Home\Desktop\Hobbit.Pustosh.Smauga.2013.BDRip.1080p.mkv
Формат : Matroska
Размер файла : 11,6 Гбайт
Продолжительность : 2 ч. 41 м.
Общий поток : 10,3 Мбит/сек
Название фильма : ~Vad~
Дата кодирования : UTC 2014-03-23 03:09:10
Программа кодирования : mkvmerge v6.5.0 ('Isn't she lovely') built on Oct 20 2013 12:50:05
Библиотека кодирования : libebml v1.3.0 + libmatroska v1.4.1

Видео
Идентификатор : 1
Формат : AVC
Формат/Информация : Advanced Video Codec
Профиль формата : High@L4.1
Параметр CABAC формата : Да
Параметр ReFrames формата : 5 кадры
Идентификатор кодека : V_MPEG4/ISO/AVC
Продолжительность : 2 ч. 41 м.
Битрейт : 9166 Кбит/сек
Ширина : 1920 пикс.
Высота : 800 пикс.
Соотношение сторон : 2,40:1
Частота кадров : 23,976 кадр/сек
Цветовое пространство : YUV
Подвыборка цветности : 4:2:0
Битовая глубина : 8 бит
Тип развёртки : Прогрессивная
Бит/(Пиксели*Кадры) : 0.249
Размер потока : 10,1 Гбайт (87%)
Заголовок : ~V~
Библиотека кодирования : x264 core 142 r2389+41 02cb608 tMod [8-bit@all X86_64]
Настройки программы : cabac=1 / ref=5 / deblock=1:-3:-3 / analyse=0x3:0x133 / me=umh / subme=11 / psy=1 / fade_compensate=0.00 / psy_rd=1.00:0.00 / mixed_ref=1 / me_range=32 / chroma_me=1 / trellis=2 / 8x8dct=1 / cqm=0 / deadzone=21,11 / fast_pskip=0 / chroma_qp_offset=-2 / threads=12 / lookahead_threads=1 / sliced_threads=0 / nr=0 / decimate=0 / interlaced=0 / bluray_compat=0 / constrained_intra=0 / fgo=0 / bframes=9 / b_pyramid=2 / b_adapt=2 / b_bias=0 / direct=3 / weightb=1 / open_gop=0 / weightp=2 / keyint=240 / keyint_min=23 / scenecut=40 / intra_refresh=0 / rc=2pass / mbtree=0 / bitrate=9166 / ratetol=1.0 / qcomp=0.60 / qpmin=0:0:0 / qpmax=69:69:69 / qpstep=4 / cplxblur=20.0 / qblur=0.5 / ip_ratio=1.40 / pb_ratio=1.30 / aq=2:0.80 / aq-sensitivity=10.00 / aq-factor=1.00:1.00:1.00 / aq2=0 / aq3=0
Язык : English

Аудио #1
Идентификатор : 2
Формат : AC-3
Формат/Информация : Audio Coding 3
Расширение режима : CM (complete main)
Идентификатор кодека : A_AC3
Продолжительность : 2 ч. 41 м.
Вид битрейта : Постоянный
Битрейт : 448 Кбит/сек
Канал(ы) : 6 канала(ов)
Расположение каналов : Front: L C R, Side: L R, LFE
Частота : 48,0 КГц
Битовая глубина : 16 бит
Метод сжатия : С потерями
Размер потока : 517 Мбайт (4%)
Заголовок : Дубляж
Язык : Russian

Аудио #2
Идентификатор : 3
Формат : AC-3
Формат/Информация : Audio Coding 3
Расширение режима : CM (complete main)
Идентификатор кодека : A_AC3
Продолжительность : 2 ч. 41 м.
Вид битрейта : Постоянный
Битрейт : 640 Кбит/сек
Канал(ы) : 6 канала(ов)
Расположение каналов : Front: L C R, Side: L R, LFE
Частота : 48,0 КГц
Битовая глубина : 16 бит
Метод сжатия : С потерями
Размер потока : 738 Мбайт (6%)
Язык : English

Текст #1
Идентификатор : 4
Формат : UTF-8
Идентификатор кодека : S_TEXT/UTF8
Идентификатор кодека/Информация : UTF-8 Plain Text
Заголовок : Forsed
Язык : Russian

Текст #2
Идентификатор : 5
Формат : UTF-8
Идентификатор кодека : S_TEXT/UTF8
Идентификатор кодека/Информация : UTF-8 Plain Text
Заголовок : Full
Язык : Russian

Меню
00:00:00.000 : en:The Quest For Erebor
00:05:44.094 : en:Wilderland
00:10:10.985 : en:The Master Summons
00:11:10.128 : en:A Commander Of Legions
00:13:50.204 : en:Queer Lodgings
00:17:12.657 : en:The Elven-Gate
00:21:25.326 : en:Mirkwood
00:24:33.472 : en:Flies And Spiders
00:33:03.273 : en:The Woodland Realm
00:36:05.747 : en:THe Elvenking
00:39:38.960 : en:King And Captain
00:41:29.654 : en:Feast Of Starlight
00:44:27.290 : en:Barrels Out Of Bound
00:55:01.757 : en:The High Fells
00:58:41.768 : en:Bard The Bowman
01:02:05.138 : en:The Nature Of Evil
01:05:29.592 : en:Smuggled Cargo
01:09:06.267 : en:Lake-Town
01:11:29.118 : en:The Master Of Lake-Town
01:13:11.762 : en:The Home Of Bard
01:19:14.959 : en:"It is our fight"
01:20:48.469 : en:The Prophecy
01:23:12.529 : en:A Warm Welcome
01:27:09.641 : en:The Lonely Mountain
01:30:45.482 : en:A Spell Of Concealment
01:33:29.813 : en:On The Doorstep
01:41:57.194 : en:Kingsfoil
01:42:24.472 : en:The Courage Of Hobbits
01:44:08.033 : en:The Enemy Revealed
01:47:34.114 : en:Inside Information
01:56:46.333 : en:The Black Arrow
01:57:28.917 : en:In The Dragon's Lair
01:58:03.410 : en:Under Arrest
01:59:42.300 : en:Bilbo The Burgler
02:01:30.575 : en:Smaug The Magnificent
02:04:04.312 : en:Orc Attack
02:07:58.462 : en:Confrontations
02:09:43.109 : en:Elvish Medicine
02:10:58.642 : en:Hunter And Hunted
02:12:31.443 : en:"She Walks In Starlight"
02:13:54.318 : en:A Desperate Plan
02:16:25.427 : en:Duel In Lake Town
02:18:51.490 : en:The Forges Relit
02:26:03.588 : en:Smaug The Golden
02:30:51.209 : en:Credits


Свернуть
Скриншоты

Изображение
Изображение
Изображение
Изображение
Изображение
Свернуть
_________________
Изображение
Изображение
Не в сети
Профиль  
Начать новую темуОтветить на тему  [ 1 сообщение ] 
Вы не можете начинать темы
Вы не можете отвечать на сообщения
Вы не можете редактировать свои сообщения
Вы не можете удалять свои сообщения