Правила форума

Здесь находятся раздачи, на которых не было полного источника (сида) более месяца.
Вы можете вернуть релиз в соответствующий раздел, для этого напишите нам в специальной теме и встаньте на раздачу.
Новые релизы, повторяющие релизы в архиве, повторами не считаются.
Начать новую темуОтветить на тему  [ Сообщений: 6 ] 
Сообщения
 Добавлено: 2011-08-10 14:03
Top-seeder
Аватара пользователя
Стаж: 8 лет 8 месяцев
Возраст: 26
Сообщений: 665
Спасибок: 2687
Лайков: 2
Холостые выстрелы / Loose Cannons

Изображение


Год выпуска: 2010
Страна: ИзображениеИталия
Жанр: Драма, мелодрама, комедия...
Продолжительность: 01:48:13
Перевод: Профессиональный (многоголосый закадровый)

Режиссёр: Ферзан Озпетек
В ролях: Риккардо Скамарчио, Николь Гримаудо, Алессандро Прециози, Эннио Фантастичини, Елена София Риччи, Бьянка Наппи, Даниэле Печчи, Каролина Крешентини
Описание: Члены большого и суматошного семейства Кантоне — отец, мать, в высшей степени эксцентричная тетя Лучиана, Томмасо, его сестра Элена и старший брат Антонио — собрались на торжественном обеде, чтобы отметить назначение Антонио главой семейного бизнеса. Томмасо решает воспользоваться случаем, чтобы рассказать наконец родным о том, что он гей, но его старший брат неожиданно опережает его, сообщив всем собравшимся аналогичную новость.

Разъяренный отец со скандалом выгоняет Антонио из дома и в результате нервного потрясения попадает в больницу. Бразды правления семейным предприятием неожиданно переходят к Томмасо. И хотя это совсем не та жизнь, о которой мечтал юноша, он не может рассказать об этом семье, боясь за здоровье отца. Какое-то время ему удается скрывать от родных правду, но все меняет неожиданный приезд его старых друзей.
Изображение

Релиз группы: Изображение

Качество: DVD9 R5
Формат: DVD Video
Видео кодек: MPEG2
Аудио кодек: AC3 (Dolby Digital)
Видео: PAL 16:9 (720x576)
Аудио: Russian (Dolby AC3, 6 ch), Italiano (Dolby AC3, 2 ch)
NFO
Свернуть
MeduaInfo
General
Complete name : D:\Holostye.vystrely.2010.P.DVD.ELEKTRI4KA\VIDEO_TS\VTS_13_5.VOB
Format : MPEG-PS
File size : 1 024 MiB
Duration : 19mn 34s
Overall bit rate : 7 312 Kbps

Video
ID: 224 (0xE0)
Format: MPEG Video
Format version: Version 2
Format profile: Main@Main
Format settings, BVOP: Yes
Format settings, Matrix: Default
Format settings, GOP: M=3, N=12
Duration: 19mn 34s
Bit rate mode: Variable
Bit rate: 6 494 Kbps
Nominal bit rate: 7 500 Kbps
Width: 720 pixels
Height: 576 pixels
Display aspect ratio: 16:9
Frame rate: 25.000 fps
Standard: PAL
Color space: YUV
Chroma subsampling: 4:2:0
Bit depth: 8 bits
Scan type: Progressive
Compression mode: Lossy
Bits/(Pixel*Frame): 0.626
Stream size: 909 MiB (89%)

Audio #1
ID: 189 (0xBD)-128 (0x80)
Format : AC-3
Format/Info: Audio Coding 3
Mode extension: CM (complete main)
Muxing mode: DVD-Video
Duration: 19mn 34s
Bit rate mode: Constant
Bit rate: 448 Kbps
Channel(s): 6 channels
Channel positions: Front: L C R, Side: L R, LFE
Sampling rate: 48.0 KHz
Bit depth: 16 bits
Compression mode: Lossy
Delay relative to video: -736ms
Stream size: 62.7 MiB (6%)

Audio #2
ID: 189 (0xBD)-129 (0x81)
Format: AC-3
Format/Info: Audio Coding 3
Mode extension: CM (complete main)
Muxing mode: DVD-Video
Duration: 19mn 34s
Bit rate mode: Constant
Bit rate: 224 Kbps
Channel(s): 2 channels
Channel positions: Front: L R
Sampling rate: 48.0 KHz
Bit depth: 16 bits
Compression mode: Lossy
Delay relative to video: -736ms
Stream size: 31.4 MiB (3%)
Свернуть
Скриншоты
Изображение
Изображение
Изображение
Свернуть


Последний раз редактировалось AndrBeb 2011-08-11 13:16, всего редактировалось 5 раз(а).
Не в сети
Профиль  
 Добавлено: 2011-08-10 23:05 (спустя 9 часов)
Top-releaser
Аватара пользователя
Стаж: 8 лет 5 месяцев
Сообщений: 6859
Спасибок: 440292
Лайков: 34
AndrBeb
Советую Вам поставить лого релиз-группы , это раз
мелодрама, комедия, DVD5 - ну DVD9 , размер же 6.29 GB , это два :)
Не в сети
Профиль  
 Добавлено: 2011-08-10 23:08 (спустя 2 минуты)
Модератор
Аватара пользователя
Стаж: 8 лет 1 месяц
Возраст: 20
Сообщений: 32130
Спасибок: 98563
Лайков: 80
Medua, хех )
Не в сети
Профиль  
 Добавлено: 2011-08-11 08:45 (спустя 9 часов)
Руководитель релиз-группы
Аватара пользователя
Стаж: 7 лет 4 месяца
Возраст: 31
Сообщений: 3407
Спасибок: 46729
Лайков: 5

AndrBeb:

DVD R9
:)
DVD9 R5, где R5 это 5 регион, российская лицензия..
Не в сети
Профиль  
 Добавлено: 2011-08-11 13:15 (спустя 4 часа)
Top-seeder
Аватара пользователя
Стаж: 8 лет 8 месяцев
Возраст: 26
Сообщений: 665
Спасибок: 2687
Лайков: 2

askboy:

AndrBeb:

DVD R9
:)
DVD9 R5, где R5 это 5 регион, российская лицензия..

спасибо
Не в сети
Профиль  
 Добавлено: 2011-08-31 18:56 (спустя 20 дней)
Кинокомментатор
Аватара пользователя
Стаж: 9 лет
Сообщений: 1331
Лайков: 52
хорошее кино!) и геи тут лишь потому что это многих шокирует! смысл не в этом;) смысл в том, что это не важно! важно какой человек, важно кто он для тебя... а какой у него пол или уж тем более ориентация... это просто предрассудки;) 7 фильму!)
_________________
Я ВКонтакте
Не в сети
Профиль  
Начать новую темуОтветить на тему  [ Сообщений: 6 ] 
Вы не можете начинать темы
Вы не можете отвечать на сообщения
Вы не можете редактировать свои сообщения
Вы не можете удалять свои сообщения