Правила форума

Здесь находятся раздачи, на которых не было полного источника (сида) более месяца.
Вы можете вернуть релиз в соответствующий раздел, для этого напишите нам в специальной теме и встаньте на раздачу.
Новые релизы, повторяющие релизы в архиве, повторами не считаются.
Начать новую темуОтветить на тему  [ 1 сообщение ] 
Сообщения
 Добавлено: 2012-01-14 12:13
Супермодератор Техподдержки
Аватара пользователя
Стаж: 8 лет 1 месяц
Сообщений: 5412
Спасибок: 1273
Лайков: 63

Хостел 3 / Hostel: Part III

Изображение


Год выпуска: 2011
Страна: США (Raw Nerve, Stage 6 Films, RCR Media Group)
Жанр: ужасы, триллер, детектив
Продолжительность: 01:27:45
Перевод: Профессиональный (многоголосый закадровый) [Лицензия]
Субтитры: English

Режиссёр: Скотт Спигел
Сценарист: Майкл Д. Уайсс, Элай Рот
Продюсер: Крис Бриггс, Майк Флайсс, Скотт Спигел и др.
Оператор: Эндрю Стрэхорн
Композитор: Фредерик Вьедманн
В ролях: Томас Кречманн, Кип Парду, Джон Хенсли, Сара Хабель, Бэрри Ливингстон, Брайан Хэллисей, Крис Кой
Описание: На этот раз события развернутся не в кровожадных притонах Словакии, а в Лас-Вегасе, где одна холостяцкая вечеринка пошла не совсем по плану — нас ожидает очередная кровавая бойня.
Рейтинг MPAA: Рейтинг R (Подростки до 17 лет допускаются на фильм только в сопровождении одного из родителей)

Изображение 4.822 (506)
Изображение 4.8/10 (3 381)

Качество: BDRip 720p
Формат: MKV
Видео: MPEG-4 AVC, 4721 Кбит/сек, 1280*720 (16:9), 23,976 кадра/сек
Аудио Russian: 384 Кбит/сек, 48,0 КГц, 16 бит, 6 каналов, AC-3 Профессиональный (многоголосый закадровый) [Лицензия]
Аудио English: 1510 Кбит/сек, 48,0 КГц, 16 бит, 6 каналов, DTS
Изображение

MediaInfo
Общее
Уникальный идентификатор         : 170221969454600415942058374142028061565 (0x800F8F0E996F23649BCFDCB1EEFE9B7D)
Полное имя                       : D:\Downloads\Hostel.Part III.BDRip.720p.mkv
Формат                           : Matroska
Версия формата                   : Version 2
Размер файла                     : 4,61 Гбайт
Продолжительность                : 1 ч. 27 м.
Общий поток                      : 7516 Кбит/сек
Название фильма                  : Hostel: Part III.BDRip.720p.Uniongang.tv
Дата кодирования                 : UTC 2012-01-13 20:05:00
Программа кодирования            : mkvmerge v5.1.0 ('And so it goes') built on Nov 28 2011 23:58:28
Библиотека кодирования           : libebml v1.2.3 + libmatroska v1.3.0

Видео
Идентификатор                    : 1
Формат                           : AVC
Формат/Информация                : Advanced Video Codec
Профиль формата                  : High@L4.1
Параметр CABAC формата           : Да
Параметр ReFrames формата        : 5 кадров
Идентификатор кодека             : V_MPEG4/ISO/AVC
Продолжительность                : 1 ч. 27 м.
Битрейт                          : 5624 Кбит/сек
Ширина                           : 1280 пикселей
Высота                           : 720 пикселей
Соотношение сторон               : 16:9
Частота кадров                   : 23,976 кадра/сек
Цветовое пространство            : YUV
Субдискретизация насыщенности    : 4:2:0
Битовая глубина                  : 8 бит
Тип развёртки                    : Прогрессивная
Бит/(Пиксели*Кадры)              : 0.255
Размер потока                    : 3,35 Гбайт (73%)
Заголовок                        : Hostel: Part III.BDRip.720p.Uniongang.tv
Библиотека кодирования           : x264 core 120 r2120 0c7dab9
Настройки программы              : cabac=1 / ref=5 / deblock=1:0:0 / analyse=0x3:0x133 / me=umh / subme=7 / psy=1 / psy_rd=1.00:0.00 / mixed_ref=1 / me_range=16 / chroma_me=1 / trellis=1 / 8x8dct=1 / cqm=0 / deadzone=21,11 / fast_pskip=0 / chroma_qp_offset=-2 / threads=12 / sliced_threads=0 / nr=0 / decimate=1 / interlaced=0 / bluray_compat=0 / constrained_intra=0 / bframes=3 / b_pyramid=2 / b_adapt=2 / b_bias=0 / direct=1 / weightb=1 / open_gop=0 / weightp=2 / keyint=250 / keyint_min=23 / scenecut=40 / intra_refresh=0 / rc_lookahead=40 / rc=2pass / mbtree=1 / bitrate=5624 / ratetol=1.0 / qcomp=0.60 / qpmin=0 / qpmax=69 / qpstep=4 / cplxblur=20.0 / qblur=0.5 / ip_ratio=1.40 / aq=1:1.00
Язык                             : English
Default                          : Да
Forced                           : Нет

Аудио #1
Идентификатор                    : 2
Формат                           : AC-3
Формат/Информация                : Audio Coding 3
Расширение режима                : CM (complete main)
Идентификатор кодека             : A_AC3
Продолжительность                : 1 ч. 27 м.
Вид битрейта                     : Постоянный
Битрейт                          : 384 Кбит/сек
Каналы                           : 6 каналов
Расположение каналов             : Front: L C R, Side: L R, LFE
Частота                          : 48,0 КГц
Битовая глубина                  : 16 бит
Метод сжатия                     : С потерями
Размер потока                    : 241 Мбайт (5%)
Язык                             : Russian
Default                          : Нет
Forced                           : Нет

Аудио #2
Идентификатор                    : 3
Формат                           : DTS
Формат/Информация                : Digital Theater Systems
Идентификатор кодека             : A_DTS
Продолжительность                : 1 ч. 27 м.
Вид битрейта                     : Постоянный
Битрейт                          : 1510 Кбит/сек
Каналы                           : 6 каналов
Расположение каналов             : Front: L C R, Side: L R, LFE
Частота                          : 48,0 КГц
Битовая глубина                  : 16 бит
Метод сжатия                     : С потерями
Размер потока                    : 948 Мбайт (20%)
Язык                             : English
Default                          : Нет
Forced                           : Нет

Текст
Идентификатор                    : 4
Формат                           : UTF-8
Идентификатор кодека             : S_TEXT/UTF8
Идентификатор кодека/Информация  : UTF-8 Plain Text
Язык                             : English
Default                          : Нет
Forced                           : Нет

Свернуть

Скриншоты
Изображение

Изображение

Изображение

Изображение
Свернуть
 rotametr нравится это.
Не в сети
Профиль  
Начать новую темуОтветить на тему  [ 1 сообщение ] 
Вы не можете начинать темы
Вы не можете отвечать на сообщения
Вы не можете редактировать свои сообщения
Вы не можете удалять свои сообщения