Правила форума

Здесь находятся раздачи, на которых не было полного источника (сида) более месяца.
Вы можете вернуть релиз в соответствующий раздел, для этого напишите нам в специальной теме и встаньте на раздачу.
Новые релизы, повторяющие релизы в архиве, повторами не считаются.
Начать новую темуОтветить на тему  [ 1 сообщение ] 
Сообщения
 Добавлено: 2014-10-08 16:40
RG-ELEKTRO
Аватара пользователя
Стаж: 2 года 3 месяца
Сообщений: 7928
Спасибок: 53752
Лайков: 3304
Хоть раз в жизни / Begin again

Изображение


Год выпуска: 2013
Страна: США (Exclusive Media Group, Sycamore Pictures, Apatow Productions)
Слоган: «Поверь. Решись. Рискни»
Жанр: драма, мелодрама, комедия, музыка
Продолжительность: 01:40:07
Перевод: Профессиональный (дубляж) [чистый звук] Официальный
Дублеры: Константин Карасик Даниил Эльдаров Наталья Грачева Алексей Мясников Вероника Саркисова + Оригинальная звуковая дорожка
Субтитры: Английские

Режиссёр: Джон Карни
Сценарист: Джон Карни
Продюсер: Тобин Армруст, Энтони Брегман, Джудд Апатоу
Оператор: Ярон Орбах
В ролях: Кира Найтли, Марк Руффало, Хейли Стайнфелд, Адам Левин, Джеймс Корден, Мос Деф, Си-Ло, Кэтрин Кинер, Карен Питтман, Пол Ромеро
Описание: Они живут в сердце музыкального мира, в Нью-Йорке. Дэн — легенда шоу-бизнеса и бывший глава музыкального лейбла. Грета — музыкант и бывшая девушка рок-звезды. Но люди бывшими и оказываются для того, чтобы начать все сначала.

Случайная встреча с Гретой дает Дэну новый шанс. Они решают вместе записать альбом. У них нет ни денег, ни профессиональных музыкантов, но все это не важно, потому что Грета и Дэн готовы к самым неожиданным поворотам и в музыке, и в любви. Их студией становится весь Нью-Йорк.


Изображение | Изображение

Качество: BDRip 1080p
Формат: MKV
Видео кодек: MPEG-4 AVC
Аудио кодек: AC3 (Dolby Digital)
Видео: MPEG-4 AVC, 8977 Кбит/с, 1920x1040, 23.976 кадр/с
Аудио #1: Русский (AC3, 2 ch, 192 Кбит/с) [Профессиональный (дубляж)]
Аудио #2: английский (DTS, 6 ch, 1509 Кбит/с) [Оригинальная звуковая дорожка]
Субтитры: Английские




Скриншоты
Изображение
Изображение
Изображение
Свернуть


"MI"
Общее
Уникальный идентификатор : 228327920276046109941640192478575774754 (0xABC65B9E04E2B063A1400581FC16CC22)
Полное имя : I:KinoZalBegin AgainBegin.Again.2013.BDRip.(1080p).mkv
Формат : Matroska
Версия формата : Version 4 / Version 2
Размер файла : 7,79 Гбайт
Продолжительность : 1 ч. 44 м.
Общий поток : 10,7 Мбит/сек
Название фильма : Begin Again (2013)
Дата кодирования : UTC 2014-10-08 03:11:02
Программа кодирования : mkvmerge v6.9.1 ('Blue Panther') 64bit built on Apr 18 2014 18:23:38
Библиотека кодирования : libebml v1.3.0 + libmatroska v1.4.1

Видео
Идентификатор : 1
Формат : AVC
Формат/Информация : Advanced Video Codec
Профиль формата : High@L4.1
Параметр CABAC формата : Да
Параметр ReFrames формата : 4 кадра
Идентификатор кодека : V_MPEG4/ISO/AVC
Продолжительность : 1 ч. 44 м.
Битрейт : 8977 Кбит/сек
Ширина : 1920 пикселей
Высота : 1040 пикселей
Соотношение сторон : 1,85:1
Режим частоты кадров : Постоянный
Частота кадров : 23,976 кадра/сек
Цветовое пространство : YUV
Субдискретизация насыщенности : 4:2:0
Битовая глубина : 8 бит
Тип развёртки : Прогрессивная
Бит/(Пиксели*Кадры) : 0.188
Размер потока : 6,39 Гбайт (82%)
Заголовок : Begin Again (2013)
Библиотека кодирования : x264 core 142 r2479 dd79a61
Настройки программы : cabac=1 / ref=4 / deblock=1:0:0 / analyse=0x3:0x133 / me=umh / subme=7 / psy=1 / psy_rd=1.00:0.00 / mixed_ref=1 / me_range=16 / chroma_me=1 / trellis=1 / 8x8dct=1 / cqm=0 / deadzone=21,11 / fast_pskip=0 / chroma_qp_offset=-2 / threads=18 / lookahead_threads=3 / sliced_threads=0 / nr=0 / decimate=1 / interlaced=0 / bluray_compat=0 / constrained_intra=0 / bframes=3 / b_pyramid=2 / b_adapt=1 / b_bias=0 / direct=1 / weightb=1 / open_gop=0 / weightp=2 / keyint=250 / keyint_min=23 / scenecut=40 / intra_refresh=0 / rc_lookahead=40 / rc=2pass / mbtree=1 / bitrate=8977 / ratetol=1.0 / qcomp=0.60 / qpmin=0 / qpmax=69 / qpstep=4 / cplxblur=20.0 / qblur=0.5 / ip_ratio=1.40 / aq=1:1.00
Язык : English
Default : Да
Forced : Нет

Аудио #1
Идентификатор : 2
Формат : AC-3
Формат/Информация : Audio Coding 3
Расширение режима : CM (complete main)
Параметр Endianness формата : Big
Идентификатор кодека : A_AC3
Продолжительность : 1 ч. 44 м.
Вид битрейта : Постоянный
Битрейт : 192 Кбит/сек
Каналы : 2 канала
Расположение каналов : Front: L R
Частота : 48,0 КГц
Битовая глубина : 16 бит
Метод сжатия : С потерями
Размер потока : 143 Мбайт (2%)
Язык : Russian
Default : Да
Forced : Нет

Аудио #2
Идентификатор : 3
Формат : DTS
Формат/Информация : Digital Theater Systems
Режим : 16
Параметр Endianness формата : Big
Идентификатор кодека : A_DTS
Продолжительность : 1 ч. 44 м.
Вид битрейта : Постоянный
Битрейт : 1509 Кбит/сек
Каналы : 6 каналов
Расположение каналов : Front: L C R, Side: L R, LFE
Частота : 48,0 КГц
Битовая глубина : 24 бит
Метод сжатия : С потерями
Размер потока : 1,10 Гбайт (14%)
Язык : English
Default : Нет
Forced : Нет

Текст #1
Идентификатор : 4
Формат : UTF-8
Идентификатор кодека : S_TEXT/UTF8
Идентификатор кодека/Информация : UTF-8 Plain Text
Язык : English
Default : Нет
Forced : Нет

Текст #2
Идентификатор : 5
Формат : UTF-8
Идентификатор кодека : S_TEXT/UTF8
Идентификатор кодека/Информация : UTF-8 Plain Text
Заголовок : SDH
Язык : English
Default : Нет
Forced : Нет

Меню
00:00:00.000 : en:00:00:00.000
00:04:00.866 : en:00:04:00.866
00:11:39.157 : en:00:11:39.157
00:17:19.914 : en:00:17:19.914
00:22:33.352 : en:00:22:33.352
00:27:30.983 : en:00:27:30.983
00:34:24.729 : en:00:34:24.729
00:39:14.936 : en:00:39:14.936
00:44:15.069 : en:00:44:15.069
00:51:18.617 : en:00:51:18.617
00:57:15.140 : en:00:57:15.140
01:03:49.784 : en:01:03:49.784
01:10:07.537 : en:01:10:07.537
01:15:21.350 : en:01:15:21.350
01:24:42.160 : en:01:24:42.160
01:30:53.573 : en:01:30:53.573
01:35:59.462 : en:01:35:59.462
01:41:24.829 : en:01:41:24.829
Свернуть
Не в сети
Профиль  
Начать новую темуОтветить на тему  [ 1 сообщение ] 
Вы не можете начинать темы
Вы не можете отвечать на сообщения
Вы не можете редактировать свои сообщения
Вы не можете удалять свои сообщения