Правила форума

Здесь находятся раздачи, на которых не было полного источника (сида) более месяца.
Вы можете вернуть релиз в соответствующий раздел, для этого напишите нам в специальной теме и встаньте на раздачу.
Новые релизы, повторяющие релизы в архиве, повторами не считаются.
Начать новую темуОтветить на тему  [ Сообщений: 5 ] 
Сообщения
 Добавлено: 2011-08-04 19:26
Книголюб
Аватара пользователя
Стаж: 7 лет 2 месяца
Сообщений: 2823
Спасибок: 48825
Лайков: 73
Храбрые Перцем
Your Highness
Изображение


Год выпуска: 2011
Страна: США
Слоган: «Приключение для тех, кому жмут гульфики»
Жанр: фэнтези, комедия, приключения
Продолжительность: 01:39:11
Перевод: Проф. (полное дублирование) [звук из кинотеатра]

Режиссёр: Дэвид Гордон Грин
В ролях: Натали Портман, Зои Дешанель, Расмус Хардайкер, Джеймс Франко, Чарльз Дэнс, Джастин Теру, Дэнни МакБрайд, Саймон Фарнэби, Тоби Джонс, Дамиан Льюис
Описание: Фильм-фэнтези о высокомерном и ленивом принце, а также о его героическом брате, который должен закончить поиски, чтобы спасти королевство их отца…
Рейтинг MPAA: Рейтинг R (Подростки до 17 лет допускаются на фильм только в сопровождении одного из родителей)
Мировая премьера: 8 апреля 2011
Бюджет: $49 900 000
Изображение 6.259 4 536

Качество: BDRip.720p
Формат: DVD MKV
Видео кодек: H264
Аудио кодек: AC3 (Dolby Digital)
Видео: 4422 kb/s, 1280x536, 0.269Bits/Pixel, 23.976 fps
Аудио #1: English, DTS, 128 kb/s (2 ch)
Аудио #2: Russian, MP3, 128 kb/s (6 ch)

MediaInfo
General
Unique ID : 189773959764440687107724229087872776578 (0x8EC5229AFE93ACD49B953054ECD57982)
Complete name : I:\1.08\Hrabrie.pertzem.UNRATED.2011.Dc.BDRip.720p.mkv
Format : Matroska
File size : 4.46 GiB
Duration : 1h 45mn
Overall bit rate : 6 061 Kbps
Encoded date : UTC 2011-07-27 00:59:31
Writing application : mkvmerge v3.4.0 ('Rapunzel') built on May 15 2010 09:38:20
Writing library : libebml v0.8.0 + libmatroska v0.9.0

Video
ID : 1
Format : AVC
Format/Info : Advanced Video Codec
Format profile : High@L4.1
Format settings, CABAC : Yes
Format settings, ReFrames : 5 frames
Codec ID : V_MPEG4/ISO/AVC
Duration : 1h 45mn
Bit rate : 4 422 Kbps
Width : 1 280 pixels
Height : 536 pixels
Display aspect ratio : 2.35:1
Frame rate : 23.976 fps
Color space : YUV
Chroma subsampling : 4:2:0
Bit depth : 8 bits
Scan type : Progressive
Bits/(Pixel*Frame) : 0.269
Stream size : 3.17 GiB (71%)
Writing library : x264 core 116 r2037 f8ebd4a
Encoding settings : cabac=1 / ref=5 / deblock=1:0:0 / analyse=0x3:0x113 / me=umh / subme=8 / psy=1 / psy_rd=1.00:0.00 / mixed_ref=1 / me_range=16 / chroma_me=1 / trellis=1 / 8x8dct=1 / cqm=0 / deadzone=21,11 / fast_pskip=1 / chroma_qp_offset=-2 / threads=12 / sliced_threads=0 / nr=0 / decimate=1 / interlaced=0 / bluray_compat=0 / constrained_intra=0 / bframes=3 / b_pyramid=2 / b_adapt=2 / b_bias=0 / direct=3 / weightb=1 / open_gop=0 / weightp=2 / keyint=240 / keyint_min=24 / scenecut=40 / intra_refresh=0 / rc_lookahead=50 / rc=2pass / mbtree=1 / bitrate=4422 / ratetol=1.0 / qcomp=0.60 / qpmin=0 / qpmax=69 / qpstep=4 / cplxblur=20.0 / qblur=0.5 / ip_ratio=1.40 / aq=1:1.00
Language : English

Audio #1
ID : 2
Format : MPEG Audio
Format version : Version 1
Format profile : Layer 3
Mode : Joint stereo
Codec ID : A_MPEG/L3
Codec ID/Hint : MP3
Duration : 1h 45mn
Bit rate mode : Constant
Bit rate : 128 Kbps
Channel(s) : 2 channels
Sampling rate : 48.0 KHz
Compression mode : Lossy
Delay relative to video : 2s 30ms
Stream size : 96.6 MiB (2%)
Title : Russian @ MP3 2.0 @ 128 kbps
Language : Russian

Audio #2
ID : 3
Format : DTS
Format/Info : Digital Theater Systems
Codec ID : A_DTS
Duration : 1h 45mn
Bit rate mode : Constant
Bit rate : 1 510 Kbps
Channel(s) : 6 channels
Channel positions : Front: L C R, Side: L R, LFE
Sampling rate : 48.0 KHz
Bit depth : 24 bits
Compression mode : Lossy
Delay relative to video : 11ms
Stream size : 1.11 GiB (25%)
Title : English @ DTS 5.1 @ 1510 kbps
Language : English

Text
ID : 4
Format : UTF-8
Codec ID : S_TEXT/UTF8
Codec ID/Info : UTF-8 Plain Text
Language : English

Menu
00:00:00.000 : en:00:00:00.000
00:04:58.298 : en:00:04:58.298
00:11:20.638 : en:00:11:20.638
00:16:07.425 : en:00:16:07.425
00:21:21.864 : en:00:21:21.864
00:26:09.318 : en:00:26:09.318
00:31:45.195 : en:00:31:45.195
00:35:48.521 : en:00:35:48.521
00:39:50.930 : en:00:39:50.930
00:46:05.388 : en:00:46:05.388
00:50:46.460 : en:00:50:46.460
00:55:08.930 : en:00:55:08.930
01:01:13.294 : en:01:01:13.294
01:05:11.824 : en:01:05:11.824
01:10:26.764 : en:01:10:26.764
01:14:27.546 : en:01:14:27.546
01:22:16.223 : en:01:22:16.223
01:31:33.112 : en:01:31:33.112
01:36:52.473 : en:01:36:52.473
01:40:47.583 : en:01:40:47.583


Свернуть


Скриншоты
Изображение
Изображение
Изображение
Свернуть
Не в сети
Профиль  
 Добавлено: 2011-08-10 17:00 (спустя 5 дней)
Стаж: 7 лет
Возраст: 21
Сообщений: 18
отпишитесь как звук, может скачаю
Не в сети
Профиль  
 Добавлено: 2011-08-28 19:18 (спустя 18 дней)
Аватара пользователя
Стаж: 8 лет 10 месяцев
Возраст: 26
Сообщений: 31
посматревшие напишите как звук,стоит воопше качать или нет!.........
Не в сети
Профиль  
 Добавлено: 2011-09-01 15:41 (спустя 3 дня)
Аватара пользователя
Стаж: 5 лет 9 месяцев
Возраст: 21
Сообщений: 37
звук не очень. фильм для любителей тупого ржача
Не в сети
Профиль  
 Добавлено: 2011-09-04 15:44 (спустя 3 дня)
Аватара пользователя
Стаж: 8 лет 3 месяца
Возраст: 43
Сообщений: 3290
Спасибок: 21012
Лайков: 3
поглощается viewtopic.php?f=1750&t=424117
_________________
Изображение
Не в сети
Профиль  
Начать новую темуОтветить на тему  [ Сообщений: 5 ] 
Вы не можете начинать темы
Вы не можете отвечать на сообщения
Вы не можете редактировать свои сообщения
Вы не можете удалять свои сообщения