Правила форума

Здесь находятся раздачи, на которых не было полного источника (сида) более месяца.
Вы можете вернуть релиз в соответствующий раздел, для этого напишите нам в специальной теме и встаньте на раздачу.
Новые релизы, повторяющие релизы в архиве, повторами не считаются.
Начать новую темуОтветить на тему  [ 1 сообщение ] 
Сообщения
 Добавлено: 2011-09-04 09:19
Top-releaser
Аватара пользователя
Стаж: 8 лет 7 месяцев
Сообщений: 1286
Спасибок: 3420
Лайков: 7
Храбрые перцем / Your Highness
«Приключение для тех, кому жмут гульфики»

Изображение
Год выпуска: 2011
Страна: США
Жанр: фэнтези, комедия, приключения
Продолжительность: 01:45:28
Перевод: Дублированное [лицензия] + субтитры на UNRATED моменты

Режиссер: Дэвид Гордон Грин
Сценарий: Дэнни МакБрайд, Бен Бест
Продюсер: Скотт Стубер, Эндрю З. Дэвис, Марк Хаффам, Питер МакАлис, Дэнни МакБрайд
Оператор: Тим Орр
Композитор: Стив Яблонски

В ролях: Дэнни МакБрайд, Джеймс Франко, Расмус Хардайкер, Натали Портман, Тоби Джонс, Джастин Теру, Зои Дешанель, Чарльз Дэнс, Дамиан Льюис, Саймон Фарнэби, Доби Опарей, Б.Дж. Хогг
Дублёры: Денис Колесников, Пётр Иващенко, Татьяна Шитова, Александр Гаврилин, Дмитрий Курта, Наталья Фищук, Владимир Антоник, Денис Беспалый, Иван Жарков
Описание: Фильм-фэнтези о высокомерном и ленивом принце, а также о его героическом брате, который должен закончить поиски, чтобы спасти королевство их отца.

Раздача: Изображение

Изображение


Бюджет: $49 900 000
Сборы в мире: $24 856 478
Сборы в США: $21 596 445
Сборы в России: $1 856 512
Мировая премьера: 8 апреля 2011
Изображение Релиз на DVD: 3 ноября 2011, «Двадцатый Век Фокс СНГ»
MPAA: Изображение
Качество: BDRip
Формат: Matroska
Видео: AVC; 1920x800 (2.40:1); 10066 Kbps; 23,976 fps; 0,273 bpp
Аудио №1: Russian; AC3; 384 Kbps; CBR; 6 ch
Аудио №2: English; DTS; 1509 Kbps; CBR; 6 ch; 24 bit

MediaInfo
Общее
Уникальный идентификатор : 249638652801680784252045393474828222176 (0xBBCEA7DA095EE8D294676BCF16B1BEE0)
Полное имя : E:\Видео\Your.Highness.2011.D.UNRATED.BDRip.1080p.[uniongang.tv].mkv
Формат : Matroska
Версия формата : Version 2
Размер файла : 8,99 Гбайт
Продолжительность : 1 ч. 45 м.
Общий поток : 12,2 Мбит/сек
Название фильма : uniongang.tv
Дата кодирования : UTC 2011-09-03 18:37:17
Программа кодирования : mkvmerge v3.4.0 ('Rapunzel') сборка от May 15 2010 09:38:20
Библиотека кодирования : libebml v0.8.0 + libmatroska v0.9.0

Видео
Идентификатор : 1
Формат : AVC
Формат/Информация : Advanced Video Codec
Профиль формата : High@L4.1
Параметр CABAC формата : Да
Параметр ReFrames формата : 5 кадров
Идентификатор кодека : V_MPEG4/ISO/AVC
Продолжительность : 1 ч. 45 м.
Битрейт : 10,3 Мбит/сек
Ширина : 1920 пикс.
Высота : 800 пикс.
Соотношение сторон : 2,40:1
Частота кадров : 23,976 кадр/сек
Цветовое пространство : YUV
Подвыборка цветности : 4:2:0
Битовая глубина : 8 бит
Тип развёртки : Прогрессивная
Бит/(Пиксели*Кадры) : 0.280
Размер потока : 7,42 Гбайт (82%)
Заголовок : Your.Highness.2011.BluRay.1080p.DTS.x264-CHD
Библиотека кодирования : x264 core 114 r1924 08d04a4
Настройки программы : cabac=1 / ref=5 / deblock=1:-3:-3 / analyse=0x3:0x113 / me=umh / subme=10 / psy=1 / psy_rd=1.05:0.10 / mixed_ref=1 / me_range=48 / chroma_me=1 / trellis=2 / 8x8dct=1 / cqm=2 / deadzone=21,11 / fast_pskip=0 / chroma_qp_offset=-2 / threads=8 / sliced_threads=0 / nr=0 / decimate=1 / interlaced=0 / constrained_intra=0 / bframes=6 / b_pyramid=2 / b_adapt=2 / b_bias=0 / direct=3 / weightb=1 / open_gop=0 / weightp=2 / keyint=250 / keyint_min=23 / scenecut=40 / intra_refresh=0 / rc_lookahead=50 / rc=2pass / mbtree=1 / bitrate=10312 / ratetol=1.0 / qcomp=0.60 / qpmin=1 / qpmax=63 / qpstep=4 / cplxblur=20.0 / qblur=0.5 / vbv_maxrate=40000 / vbv_bufsize=40000 / nal_hrd=none / ip_ratio=1.40 / aq=2:0.80
Язык : English

Аудио #1
Идентификатор : 2
Формат : AC-3
Формат/Информация : Audio Coding 3
Расширение режима : CM (complete main)
Идентификатор кодека : A_AC3
Продолжительность : 1 ч. 45 м.
Вид битрейта : Постоянный
Битрейт : 384 Кбит/сек
Каналы : 6 каналов
Расположение каналов : Front: L C R, Side: L R, LFE
Частота : 48,0 КГц
Битовая глубина : 16 бит
Метод сжатия : С потерями
Размер потока : 290 Мбайт (3%)
Заголовок : DUB R5
Язык : Russian

Аудио #2
Идентификатор : 3
Формат : DTS
Формат/Информация : Digital Theater Systems
Идентификатор кодека : A_DTS
Продолжительность : 1 ч. 45 м.
Вид битрейта : Постоянный
Битрейт : 1510 Кбит/сек
Каналы : 6 каналов
Расположение каналов : Front: L C R, Side: L R, LFE
Частота : 48,0 КГц
Битовая глубина : 24 бит
Метод сжатия : С потерями
Размер потока : 1,11 Гбайт (12%)
Заголовок : Original
Язык : English

Текст #1
Идентификатор : 4
Формат : UTF-8
Идентификатор кодека : S_TEXT/UTF8
Идентификатор кодека/Информация : UTF-8 Plain Text
Заголовок : Unrated + Forced
Язык : Russian

Текст #2
Идентификатор : 5
Формат : UTF-8
Идентификатор кодека : S_TEXT/UTF8
Идентификатор кодека/Информация : UTF-8 Plain Text
Заголовок : Full
Язык : Russian

Текст #3
Идентификатор : 6
Формат : UTF-8
Идентификатор кодека : S_TEXT/UTF8
Идентификатор кодека/Информация : UTF-8 Plain Text
Заголовок : English
Язык : English

Свернуть

Скриншоты
Изображение
Изображение
Изображение
Изображение
Изображение
Изображение
Изображение
Изображение
Изображение

Свернуть

Изображение


Последний раз редактировалось Shamman 2011-09-04 09:43, всего редактировалось 1 раз.
Не в сети
Профиль  
Начать новую темуОтветить на тему  [ 1 сообщение ] 
Вы не можете начинать темы
Вы не можете отвечать на сообщения
Вы не можете редактировать свои сообщения
Вы не можете удалять свои сообщения