Правила форума

Здесь находятся раздачи, на которых не было полного источника (сида) более месяца.
Вы можете вернуть релиз в соответствующий раздел, для этого напишите нам в специальной теме и встаньте на раздачу.
Новые релизы, повторяющие релизы в архиве, повторами не считаются.
Начать новую темуОтветить на тему  [ 1 сообщение ] 
Сообщения
 Добавлено: 2012-05-15 13:19
Модератор
Аватара пользователя
Стаж: 6 лет 10 месяцев
Возраст: 33
Сообщений: 5908
Спасибок: 61239
Лайков: 3540
Изображение

Хроника / Chronicle


Год выпуска: 2012
Страна: США, Великобритания
Слоган: «На что способен ты?»
Жанр: фантастика, боевик, триллер, драма
Продолжительность: 01:29:31
Перевод: Авторский (одноголосый) [zamez] | Чистый звук
Режиссер: Джошуа Транк
Сценарий: Макс Лэндис, Джошуа Транк
Продюсер: Джон Дэвис, Адам Шредер, Грег Бакл
Оператор: Мэттью Дженсен
В ролях: Дэйн ДеХаан, Алекс Расселл, Майкл Б. Джордан, Майкл Келли, Эшли Хиншоу, Бо Петерсен, Анна Вуд, Руди Малкольм, Люк Тайлер, Кристал-Донна Робертс
Бюджет: $12 000 000
Сборы в США: $64 511 763
Сборы в России: $3 948 604
Сборы в мире: $124 012 168
Описание: Три школьника получают супер способности после обнаружения упавшего метеорита. Скоро они попадут в водоворот событий, в котором откроются их темные стороны.
Изображение
MPAA: Изображение
Мировая премьера: 28 января 2012
Релиз на DVD: 7 июня 2012, «Двадцатый Век Фокс СНГ»
Релиз на Blu-ray: 7 июня 2012, «Двадцатый Век Фокс СНГ»
Раздача группы:Изображение
Изображение
Качество: BDRip, 720p
Формат: Matroska
Видео: AVC; 1280x690 (1.855); 6345 Kbps; 23,976 fps; 0,300 bit/pixel
Аудио: Russian; AC3; 448 Kbps; CBR; 6 ch

MediaInfo
General
Unique ID : 196603950009942048962855601587606463783 (0x93E88B1F9910B20BA4AB89F334532527)
Complete name : C:UsersСергейDownloadsОбычные фильмыХроникаХроника.2012.Extended.L1.BD720p.mkv
Format : Matroska
Format version : Version 2
File size : 4.33 GiB
Duration : 1h 29mn
Overall bit rate : 6 931 Kbps
Encoded date : UTC 2012-05-15 07:58:46
Writing application : mkvmerge v5.5.0 ('Healer') built on Apr 6 2012 21:43:24
Writing library : libebml v1.2.3 + libmatroska v1.3.0

Video
ID : 1
Format : AVC
Format/Info : Advanced Video Codec
Format profile : High@L4.1
Format settings, CABAC : Yes
Format settings, ReFrames : 9 frames
Codec ID : V_MPEG4/ISO/AVC
Duration : 1h 29mn
Bit rate : 6 502 Kbps
Width : 1 280 pixels
Height : 690 pixels
Display aspect ratio : 1.855
Frame rate : 23.976 fps
Color space : YUV
Chroma subsampling : 4:2:0
Bit depth : 8 bits
Scan type : Progressive
Bits/(Pixel*Frame) : 0.307
Stream size : 3.97 GiB (92%)
Writing library : x264 core 120 r2146 bcd41db
Encoding settings : cabac=1 / ref=9 / deblock=1:-3:-3 / analyse=0x3:0x113 / me=umh / subme=10 / psy=1 / psy_rd=1.10:0.15 / mixed_ref=1 / me_range=32 / chroma_me=1 / trellis=2 / 8x8dct=1 / cqm=0 / deadzone=21,11 / fast_pskip=0 / chroma_qp_offset=-2 / threads=12 / sliced_threads=0 / nr=0 / decimate=1 / interlaced=0 / bluray_compat=0 / constrained_intra=0 / bframes=6 / b_pyramid=2 / b_adapt=2 / b_bias=0 / direct=3 / weightb=1 / open_gop=0 / weightp=2 / keyint=250 / keyint_min=23 / scenecut=40 / intra_refresh=0 / rc_lookahead=60 / rc=2pass / mbtree=0 / bitrate=6502 / ratetol=1.0 / qcomp=0.60 / qpmin=0 / qpmax=69 / qpstep=4 / cplxblur=20.0 / qblur=0.5 / vbv_maxrate=40000 / vbv_bufsize=30000 / nal_hrd=none / ip_ratio=1.40 / pb_ratio=1.30 / aq=1:0.80
Language : English
Default : No
Forced : No

Audio
ID : 2
Format : AC-3
Format/Info : Audio Coding 3
Mode extension : CM (complete main)
Codec ID : A_AC3
Duration : 1h 29mn
Bit rate mode : Constant
Bit rate : 448 Kbps
Channel(s) : 6 channels
Channel positions : Front: L C R, Side: L R, LFE
Sampling rate : 48.0 KHz
Bit depth : 16 bits
Compression mode : Lossy
Stream size : 287 MiB (6%)
Title : Zamez
Language : Russian
Default : Yes
Forced : No

Свернуть

Скриншоты

Изображение
Изображение
Изображение
Изображение
Свернуть
_________________
ИзображениеИзображение Изображение
Изображение
 tany1984 и di-ys1 нравится это.
Не в сети
Профиль  
Начать новую темуОтветить на тему  [ 1 сообщение ] 
Вы не можете начинать темы
Вы не можете отвечать на сообщения
Вы не можете редактировать свои сообщения
Вы не можете удалять свои сообщения