Правила форума

Здесь находятся раздачи, на которых не было полного источника (сида) более месяца.
Вы можете вернуть релиз в соответствующий раздел, для этого напишите нам в специальной теме и встаньте на раздачу.
Новые релизы, повторяющие релизы в архиве, повторами не считаются.
Начать новую темуОтветить на тему  [ 1 сообщение ] 
Сообщения
 Добавлено: 2011-12-09 10:33
Модератор релиз-группы
Аватара пользователя
Стаж: 9 лет 1 месяц
Возраст: 97
Сообщений: 11659
Спасибок: 6530
Лайков: 269
Идеальное ограбление / Daylight Robbery

Изображение


Страна: Великобритания
Год выпуска: 2008
Жанр: Триллер, драма, криминал
Продолжительность: 01:34:00
Перевод: Профессиональный (многоголосый, закадровый)
Оригинальная звуковая дорожка

Режиссер: Пэрис Леонти

В ролях: Ксавьер Андерсон, Броди Басс, Джофф Белл, Вэс Блэквуд, Роберт Болтер, Макс Браун, Джеймс Джонсон Флинт, Антонио Гил-Мартинес, Лео Грегори

Описание: Алекс — лидер, способен организовать и возглавить любое дело. Сьют — сын Алекса, привык во всем слушаться «папочку». Норман — держит все и всех под контролем. Лаки — всегда получает то, что хочет — любой ценой. Джей — любит не бизнес, а себя в бизнесе. Терри — обожает бездельничать. Мэтти — всем навязывает свое мнение. Чабби — любит свою семью почти так же, как и футбол. Считая, что они придумали идеальный план, восемь друзей решили ограбить крупнейший банк Лондона. Под прикрытием суматохи, сопровождающей чемпионат мира по футболу, они пытаются осуществить дерзкую авантюру. Но в любом плане всегда есть слабые места…
Изображение
Качество: HDTV (1080i)
Формат: mkv
Видео: MPEG-4 AVC, 9907 Кбит/с, 1920x1080
Аудио: Русский AC3, 6 ch, 384 Кбит/с
Аудио: Английский AC3, 6 ch, 384 Кбит/с

скриншоты
Изображение

Изображение

Изображение

Изображение

Изображение
Свернуть
Mi
Format : Matroska
Format version : Version 2
File size : 7.18 GiB
Duration : 1h 34mn
Overall bit rate : 10.8 Mbps
Encoded date : UTC 2011-12-09 07:22:53
Writing application : mkvmerge v5.1.0 ('And so it goes') built on Nov 28 2011 23:58:28
Writing library : libebml v1.2.3 + libmatroska v1.3.0

Video
ID : 1
Format : AVC
Format/Info : Advanced Video Codec
Format profile : Main@L4.0
Format settings, CABAC : Yes
Format settings, ReFrames : 4 frames
Format settings, GOP : M=4, N=13
Codec ID : V_MPEG4/ISO/AVC
Duration : 1h 34mn
Bit rate mode : Variable
Bit rate : 9 852 Kbps
Maximum bit rate : 40.0 Mbps
Width : 1 920 pixels
Height : 1 080 pixels
Display aspect ratio : 16:9
Frame rate : 50.000 fps
Original frame rate : 25.000 fps
Color space : YUV
Chroma subsampling : 4:2:0
Bit depth : 8 bits
Scan type : Interlaced
Scan order : Top Field First
Bits/(Pixel*Frame) : 0.095
Stream size : 6.53 GiB (91%)
Language : English
Color primaries : BT.709-5, BT.1361, IEC 61966-2-4, SMPTE RP177
Transfer characteristics : BT.709-5, BT.1361
Matrix coefficients : BT.709-5, BT.1361, IEC 61966-2-4 709, SMPTE RP177

Audio #1
ID : 2
Format : AC-3
Format/Info : Audio Coding 3
Mode extension : CM (complete main)
Codec ID : A_AC3
Duration : 1h 34mn
Bit rate mode : Constant
Bit rate : 384 Kbps
Channel(s) : 6 channels
Channel positions : Front: L C R, Side: L R, LFE
Sampling rate : 48.0 KHz
Bit depth : 16 bits
Compression mode : Lossy
Stream size : 261 MiB (4%)

Audio #2
ID : 3
Format : AC-3
Format/Info : Audio Coding 3
Mode extension : CM (complete main)
Codec ID : A_AC3
Duration : 1h 34mn
Bit rate mode : Constant
Bit rate : 384 Kbps
Channel(s) : 6 channels
Channel positions : Front: L C R, Side: L R, LFE
Sampling rate : 48.0 KHz
Bit depth : 16 bits
Compression mode : Lossy
Stream size : 261 MiB (4%)

Свернуть
_________________
Изображение
Не в сети
Профиль  
Начать новую темуОтветить на тему  [ 1 сообщение ] 
Вы не можете начинать темы
Вы не можете отвечать на сообщения
Вы не можете редактировать свои сообщения
Вы не можете удалять свои сообщения