Правила форума

Здесь находятся раздачи, на которых не было полного источника (сида) более месяца.
Вы можете вернуть релиз в соответствующий раздел, для этого напишите нам в специальной теме и встаньте на раздачу.
Новые релизы, повторяющие релизы в архиве, повторами не считаются.
Начать новую темуОтветить на тему  [ Сообщений: 9 ] 
Сообщения
 Добавлено: 2013-08-30 15:46
Top-releaser
Аватара пользователя
Стаж: 8 лет 9 месяцев
Сообщений: 479
Спасибок: 20187
Лайков: 16
Изображение

Иллюзия обмана

Now You See Me


«Чем вы ближе, тем меньше вы видите.»

Год выпуска: 2013
Страна: Изображение Франция, Изображение США; Summit Entertainment, K/O Paper Products, SOIXAN7E QUIN5E
Жанр: Триллер, криминал, детектив
Продолжительность: 01:55:21
Перевод: Профессиональный (дублированный), Оригинал
Субтитры: Английские

Режиссёр: Луи Летерье / Louis Leterrier

В ролях: Джесси Айзенберг, Марк Руффало, Вуди Харрельсон, Мелани Лоран, Айла Фишер, Дэйв Франко, Майкл Кейн, Морган Фриман, Майкл Келли, Коммон

Описание: Команда лучших иллюзионистов мира проворачивает дерзкие ограбления прямо во время своих шоу, играя в кошки-мышки с агентами ФБР.


Качество: Blu-Ray Remux 1080p
Формат: MKV

Видео: AVC at 24,3 Мбит/сек, 1920 x 1080 (1.778) at 23.976 fps

Аудио 1: AC-3 at 384 Кбит/сек, 6 канала(ов), 48,0 КГц [Дубляж] - iTunes
Аудио 2: DTS-HD MA, 8 ch, 5171 Кбит/с [Оригинал]
Раздача: Изображение

Изображение
MediaInfo

Общее
Уникальный идентификатор : 195555930473900204738981562475355267374 (0x931EB3C55C12101B89FC9A420E2F612E)
Полное имя : C:\Users\Домашний\Desktop\Now.You.See.Me.2013.BluRay-Remux(1080p)[nntt].mkv
Формат : Matroska
Размер файла : 21,6 Гбайт
Продолжительность : 1 ч. 55 м.
Общий поток : 26,8 Мбит/сек
Дата кодирования : UTC 2013-08-29 18:16:12
Программа кодирования : mkvmerge v6.3.0 ('You can't stop me!') built on Jun 28 2013 20:09:41
Библиотека кодирования : libebml v1.3.0 + libmatroska v1.4.0

Видео
Идентификатор : 1
Формат : AVC
Формат/Информация : Advanced Video Codec
Профиль формата : High@L4.1
Параметр CABAC формата : Да
Параметр ReFrames формата : 4 кадры
Идентификатор кодека : V_MPEG4/ISO/AVC
Продолжительность : 1 ч. 55 м.
Вид битрейта : Переменный
Битрейт : 24,3 Мбит/сек
Максимальный битрейт : 37,0 Мбит/сек
Ширина : 1920 пикс.
Высота : 1080 пикс.
Соотношение сторон : 16:9
Частота кадров : 23,976 кадр/сек
Цветовое пространство : YUV
Подвыборка цветности : 4:2:0
Битовая глубина : 8 бит
Тип развёртки : Прогрессивная
Бит/(Пиксели*Кадры) : 0.489
Размер потока : 19,6 Гбайт (91%)
Заголовок : Now You See Me 2013 1080p Blu-ray AVC DTS-HD MA 7.1-HDWinG
Язык : English

Аудио #1
Идентификатор : 2
Формат : AC-3
Формат/Информация : Audio Coding 3
Расширение режима : CM (complete main)
Идентификатор кодека : A_AC3
Продолжительность : 1 ч. 55 м.
Вид битрейта : Постоянный
Битрейт : 384 Кбит/сек
Канал(ы) : 6 канала(ов)
Расположение каналов : Front: L C R, Side: L R, LFE
Частота : 48,0 КГц
Битовая глубина : 16 бит
Метод сжатия : С потерями
Размер потока : 317 Мбайт (1%)
Заголовок : itunes
Язык : Russian

Аудио #2
Идентификатор : 3
Формат : DTS
Формат/Информация : Digital Theater Systems
Профиль формата : MA / Core
Идентификатор кодека : A_DTS
Продолжительность : 1 ч. 55 м.
Вид битрейта : Переменный
Битрейт : 1606 Кбит/сек / 1510 Кбит/сек
Канал(ы) : 8 канала(ов) / 6 канала(ов)
Расположение каналов : Front: L C R, Side: L R, Back: L R, LFE / Front: L C R, Side: L R, LFE
Частота : 48,0 КГц
Битовая глубина : 24 бит
Метод сжатия : Без потерь / Lossy
Язык : English

Текст
Идентификатор : 4
Формат : UTF-8
Идентификатор кодека : S_TEXT/UTF8
Идентификатор кодека/Информация : UTF-8 Plain Text
Язык : English

Меню
00:00:00.000 : en:00:00:00.000
00:07:41.794 : en:00:07:41.794
00:13:34.271 : en:00:13:34.271
00:20:17.466 : en:00:20:17.466
00:30:13.144 : en:00:30:13.144
00:37:35.169 : en:00:37:35.169
00:44:45.724 : en:00:44:45.724
00:51:15.905 : en:00:51:15.905
00:58:56.908 : en:00:58:56.908
01:04:31.909 : en:01:04:31.909
01:13:21.938 : en:01:13:21.938
01:20:44.130 : en:01:20:44.130
01:27:06.053 : en:01:27:06.053
01:35:46.448 : en:01:35:46.448
01:41:00.178 : en:01:41:00.178
01:45:47.507 : en:01:45:47.507


Свернуть
Скриншоты

Изображение
Изображение
Изображение
Изображение
Изображение
Изображение
Свернуть
_________________
Изображение
Изображение
Не в сети
Профиль  
 Добавлено: 2013-08-30 16:37 (спустя 50 минут)
Аватара пользователя
Стаж: 8 лет 7 месяцев
Сообщений: 5
как фильм вообще
Не в сети
Профиль  
 Добавлено: 2013-08-30 16:52 (спустя 14 минут)
Аватара пользователя
Стаж: 4 года
Возраст: 20
Сообщений: 30
Спасибок: 139
Лайков: 1
Что значит iTunes? Что это только для продукции Apple?
_________________
Game Programm
Не в сети
Профиль  
 Добавлено: 2013-08-31 00:54 (спустя 8 часов)
Стаж: 9 лет 1 месяц
Возраст: 32
Сообщений: 263
Лайков: 9

Muchenik:

Что значит iTunes? Что это только для продукции Apple?

нет, каэш. подписано ж, шо дубляж из версии фильма продающейся в айтюнс.
Не в сети
Профиль  
 Добавлено: 2013-08-31 14:15 (спустя 13 часов)
Стаж: 3 года 3 месяца
Сообщений: 2
фильм очень крутой))
Не в сети
Профиль  
 Добавлено: 2013-09-07 22:14 (спустя 7 дней)
Аватара пользователя
Стаж: 4 года 9 месяцев
Возраст: 24
Сообщений: 66
По идее это ведь не лицензия? а то на кинопоиске написано, что релиз на блюрай только 17 сентября.
_________________
Изображение
Не в сети
Профиль  
 Добавлено: 2013-09-08 10:54 (спустя 12 часов)
Аватара пользователя
Стаж: 8 лет 4 месяца
Сообщений: 113
Лайков: 4
А что со звуком? тоже тихо очень?
Не в сети
Профиль  
 Добавлено: 2013-09-09 19:29 (спустя 1 день 8 часов)
Аватара пользователя
Стаж: 5 лет 2 месяца
Сообщений: 9
Спасибок: 4
:ya_hoo_oo: вееещь)
Не в сети
Профиль  
 Добавлено: 2013-09-14 19:06 (спустя 4 дня)
Модератор
Аватара пользователя
Стаж: 8 лет 11 месяцев
Сообщений: 516
Спасибок: 26888
Лайков: 1
viewtopic.php?f=1743&t=517404
Не в сети
Профиль  
Начать новую темуОтветить на тему  [ Сообщений: 9 ] 
Вы не можете начинать темы
Вы не можете отвечать на сообщения
Вы не можете редактировать свои сообщения
Вы не можете удалять свои сообщения