Правила форума

Здесь находятся раздачи, на которых не было полного источника (сида) более месяца.
Вы можете вернуть релиз в соответствующий раздел, для этого напишите нам в специальной теме и встаньте на раздачу.
Новые релизы, повторяющие релизы в архиве, повторами не считаются.
Начать новую темуОтветить на тему  [ Сообщений: 7 ] 
Сообщения
 Добавлено: 2013-08-21 16:19
Top-releaser
Аватара пользователя
Стаж: 8 лет 9 месяцев
Сообщений: 479
Спасибок: 20187
Лайков: 16
Изображение

Иллюзия обмана

Now You See Me


«Чем вы ближе, тем меньше вы видите.»

Год выпуска: 2013
Страна: Франция, США; Summit Entertainment, K/O Paper Products, SOIXAN7E QUIN5E
Жанр: Триллер, криминал, детектив
Продолжительность: 02:05:45
Перевод: Профессиональный (дублированный) [Звук с TS], Оригинал
Примечание: EXTENDED версия. Отсутствует около 13 минут перевода.
Субтитры: English

Режиссёр: Луи Летерье / Louis Leterrier

В ролях: Джесси Айзенберг, Марк Руффало, Вуди Харрельсон, Мелани Лоран, Айла Фишер, Дэйв Франко, Майкл Кейн, Морган Фриман, Майкл Келли, Коммон

Описание: Команда лучших иллюзионистов мира проворачивает дерзкие ограбления прямо во время своих шоу, играя в кошки-мышки с агентами ФБР.


Качество: BDRip 720p
Формат: MKV

Видео: AVC at 4707 Кбит/сек, 1280 x 536 (2.388) at 23.976 fps

Аудио 1: MPEG Audio at 192 Кбит/сек, 2 канала(ов), 48,0 КГц [Дубляж] - Звук с TS
Аудио 2: DTS at 1510 Кбит/сек, 6 канала(ов), 48,0 КГц [Оригинал]
Раздача: Изображение

Изображение

Изображение
MediaInfo

Общее
Уникальный идентификатор : 222009430679060270121058136580859509848 (0xA70576073FD6025283FE1873099A3C58)
Полное имя : C:\Users\Домашний\Desktop\Illuzija.Obmana.2013.BDRip.720p.EXTENDED[nntt].mkv
Формат : Matroska
Размер файла : 5,63 Гбайт
Продолжительность : 2 ч. 5 м.
Общий поток : 6407 Кбит/сек
Дата кодирования : UTC 2013-08-21 10:01:20
Программа кодирования : mkvmerge v6.1.0 ('Old Devil') built on Mar 4 2013 09:10:42
Библиотека кодирования : libebml v1.3.0 + libmatroska v1.4.0

Видео
Идентификатор : 1
Формат : AVC
Формат/Информация : Advanced Video Codec
Профиль формата : High@L4.1
Параметр CABAC формата : Да
Параметр ReFrames формата : 5 кадры
Идентификатор кодека : V_MPEG4/ISO/AVC
Продолжительность : 2 ч. 5 м.
Битрейт : 4707 Кбит/сек
Ширина : 1280 пикс.
Высота : 536 пикс.
Соотношение сторон : 2,35:1
Частота кадров : 23,976 кадр/сек
Цветовое пространство : YUV
Подвыборка цветности : 4:2:0
Битовая глубина : 8 бит
Тип развёртки : Прогрессивная
Бит/(Пиксели*Кадры) : 0.286
Размер потока : 4,02 Гбайт (71%)
Библиотека кодирования : x264 core 133 r2334 a3ac64b
Настройки программы : cabac=1 / ref=5 / deblock=1:0:0 / analyse=0x3:0x133 / me=umh / subme=7 / psy=1 / psy_rd=1.00:0.00 / mixed_ref=1 / me_range=16 / chroma_me=1 / trellis=1 / 8x8dct=1 / cqm=0 / deadzone=21,11 / fast_pskip=0 / chroma_qp_offset=-2 / threads=18 / lookahead_threads=3 / sliced_threads=0 / nr=0 / decimate=1 / interlaced=0 / bluray_compat=0 / constrained_intra=0 / bframes=3 / b_pyramid=2 / b_adapt=1 / b_bias=0 / direct=1 / weightb=1 / open_gop=0 / weightp=2 / keyint=250 / keyint_min=23 / scenecut=40 / intra_refresh=0 / rc_lookahead=40 / rc=2pass / mbtree=1 / bitrate=4707 / ratetol=1.0 / qcomp=0.60 / qpmin=0 / qpmax=69 / qpstep=4 / cplxblur=20.0 / qblur=0.5 / ip_ratio=1.40 / aq=1:1.00
Язык : English

Аудио #1
Идентификатор : 2
Формат : MPEG Audio
Версия формата : Version 1
Профиль формата : Layer 3
Режим : Joint stereo
Идентификатор кодека : A_MPEG/L3
Идентификатор кодека/Подсказка : MP3
Продолжительность : 2 ч. 5 м.
Вид битрейта : Постоянный
Битрейт : 192 Кбит/сек
Канал(ы) : 2 канала(ов)
Частота : 48,0 КГц
Метод сжатия : С потерями
Размер потока : 173 Мбайт (3%)
Язык : Russian

Аудио #2
Идентификатор : 3
Формат : DTS
Формат/Информация : Digital Theater Systems
Идентификатор кодека : A_DTS
Продолжительность : 2 ч. 5 м.
Вид битрейта : Постоянный
Битрейт : 1510 Кбит/сек
Канал(ы) : 6 канала(ов)
Расположение каналов : Front: L C R, Side: L R, LFE
Частота : 48,0 КГц
Битовая глубина : 24 бит
Метод сжатия : С потерями
Размер потока : 1,33 Гбайт (24%)
Заголовок : DTS
Язык : English

Текст
Идентификатор : 4
Формат : UTF-8
Идентификатор кодека : S_TEXT/UTF8
Идентификатор кодека/Информация : UTF-8 Plain Text
Заголовок : English
Язык : English

Меню
00:00:00.000 : en:00:00:00.000
00:08:26.548 : en:00:08:26.548
00:15:16.082 : en:00:15:16.082
00:20:42.463 : en:00:20:42.463
00:25:03.210 : en:00:25:03.210
00:27:34.111 : en:00:27:34.111
00:43:00.244 : en:00:43:00.244
00:45:27.864 : en:00:45:27.864
00:46:55.896 : en:00:46:55.896
00:59:20.223 : en:00:59:20.223
01:04:13.516 : en:01:04:13.516
01:07:00.600 : en:01:07:00.600
01:13:59.310 : en:01:13:59.310
01:28:16.624 : en:01:28:16.624
01:48:00.432 : en:01:48:00.432
01:50:00.176 : en:01:50:00.176
01:54:03.753 : en:01:54:03.753


Свернуть
Скриншоты

Изображение
Изображение
Изображение
Изображение
Изображение
Свернуть
_________________
Изображение
Изображение
Не в сети
Профиль  
 Добавлено: 2013-08-21 19:20 (спустя 3 часа)
Аватара пользователя
Стаж: 7 лет 5 месяцев
Сообщений: 29
Мдаааа звук конечно отвратительный!!!
Не в сети
Профиль  
 Добавлено: 2013-08-22 21:14 (спустя 1 день 1 час)
Аватара пользователя
Стаж: 7 лет 11 месяцев
Возраст: 29
Сообщений: 577
Спасибок: 3357
Лайков: 26
Но не такой отвратительный как этот убогий говнофильм с хреновой игрой актеров и дурацким сюжетом.
Не в сети
Профиль  
 Добавлено: 2013-08-25 15:49 (спустя 2 дня 18 часов)
Стаж: 8 лет 11 месяцев
Сообщений: 28
Во время фильма регулярно пропадает русская речь, сменяясь английской, причем в самых интересных местах !!!
Не в сети
Профиль  
 Добавлено: 2013-08-25 18:04 (спустя 2 часа 14 минут)
Стаж: 5 лет 5 месяцев
Сообщений: 4
дайте скорости!!! спасибо.
Не в сети
Профиль  
 Добавлено: 2013-08-26 16:44 (спустя 22 часа)
Аватара пользователя
Стаж: 8 лет 7 месяцев
Возраст: 44
Сообщений: 289
Спасибок: 149
Лайков: 4
Картинка хорошая, но регулярно пропадающий перевод бесит.
Не в сети
Профиль  
 Добавлено: 2013-09-14 19:07 (спустя 19 дней)
Модератор
Аватара пользователя
Стаж: 8 лет 11 месяцев
Сообщений: 516
Спасибок: 26888
Лайков: 1
viewtopic.php?f=1743&t=517404
Не в сети
Профиль  
Начать новую темуОтветить на тему  [ Сообщений: 7 ] 
Вы не можете начинать темы
Вы не можете отвечать на сообщения
Вы не можете редактировать свои сообщения
Вы не можете удалять свои сообщения