Правила форума

Здесь находятся раздачи, на которых не было полного источника (сида) более месяца.
Вы можете вернуть релиз в соответствующий раздел, для этого напишите нам в специальной теме и встаньте на раздачу.
Новые релизы, повторяющие релизы в архиве, повторами не считаются.
Начать новую темуОтветить на тему  [ Сообщений: 3 ] 
Сообщения
 Добавлено: 2012-07-29 00:32
Top-releaser
Аватара пользователя
Стаж: 8 лет
Возраст: 31
Сообщений: 478
Спасибок: 4018
Лайков: 1
Инвазия / Infestation

Изображение

Год выпуска: 2009
Страна: США
Слоган: «Вы уже заражены!»
Жанр: ужасы, боевик, комедия
Продолжительность: 1:31:05
Перевод: Любительский (двухголосый закадровый)
Субтитры: Нет

Режиссёр: Кайл Ранкин
Сценарист: Кайл Ранкин
Продюсер: Джефф Балис, Брюс Дэвей, Роудс Рейдер
Оператор: Томас Экермен
Композитор: Стивен Гатайнц
В ролях: Дайан Гаета, Дебора Геффнер, Рей Уайз, VJ Kewl, Крис Маркетт, Брю Мюллер, Брук Невин, Кинси Паккард, Линда Парк
Описание: Куперу крупно не повезло. Он опять опоздал на работу и его увольняют. Но не успел он выйти за дверь, как жуткий звук, как будто с небес, лишил его чувств. Очнулся он в коконе из паутины. Кругом его бывшие сослуживцы и почти все они мертвы.

Началось вторжение на Землю гигантских насекомых. Любой их укус превращает землянина в такую же безобразную тварь. Купер, вместе с дочкой начальницы Сарой и оставшимися в живых людьми, пытаются выбраться из города и спастись. По дороге они встречают спецназовца на пенсии и вместе с ним начинают войну с агрессорами.

Изображение 5.180 (459)
Изображение 6.1(4,965)

Качество: BDRip
Формат: mkv
Видео кодек: MPEG4
Аудио кодек: AC3 ,DTS
Видео: MPEG4 Video (H264) 1920x1040 23.98fps 11.0 Mbps
Аудио 1: (рус) Dolby AC3 48000Hz 6ch 448 Kbps
Аудио 2: (англ) DTS 48000Hz 6ch 1 536 Kbps
Субтитры: Нет

Подробные тех.данные
General
Unique ID : 205434602013110649439791129493929032462 (0x9A8D43E1B97851BEBE62419C2F157B0E)
Complete name : D:\фильмы\infestation_(1080p).mkv
Format : Matroska
Format version : Version 2
File size : 8.21 GiB
Duration : 1h 31mn
Overall bit rate : 12.9 Mbps
Encoded date : UTC 2009-11-14 12:26:14
Writing application : mkvmerge v2.9.8 ('C'est le bon') built on Aug 13 2009 12:49:06
Writing library : libebml v0.7.7 + libmatroska v0.8.1
Video #1
ID : 1
Format : AVC
Format/Info : Advanced Video Codec
Format profile : High@L4.1
Format settings, CABAC : Yes
Format settings, ReFrames : 4 frames
Codec ID : V_MPEG4/ISO/AVC
Duration : 1h 31mn
Bit rate : 11.0 Mbps
Width : 1 920 pixels
Height : 1 040 pixels
Display aspect ratio : 16:9
Frame rate : 23.976 fps
Color space : YUV
Chroma subsampling : 4:2:0
Bit depth : 8 bits
Scan type : Progressive
Bits/(Pixel*Frame) : 0.229
Stream size : 6.80 GiB (83%)
Writing library : x264 core 72 r1217 5e9ae4c
Encoding settings : cabac=1 / ref=4 / deblock=1:0:0 / analyse=0x3:0x133 / me=umh / subme=7 / psy=1 / psy_rd=1.0:0.0 / mixed_ref=1 / me_range=16 / chroma_me=1 / trellis=1 / 8x8dct=1 / cqm=0 / deadzone=21,11 / chroma_qp_offset=-2 / threads=12 / nr=0 / decimate=1 / mbaff=0 / bframes=3 / b_pyramid=1 / b_adapt=1 / b_bias=0 / direct=1 / wpredb=1 / keyint=250 / keyint_min=25 / scenecut=40 / rc=2pass / mbtree=0 / bitrate=10975 / ratetol=1.0 / qcomp=0.60 / qpmin=10 / qpmax=51 / qpstep=4 / cplxblur=20.0 / qblur=0.5 / ip_ratio=1.40 / pb_ratio=1.30 / aq=1:1.00
Language : English
Default : Yes
Forced : No
Audio #2
ID : 2
Format : AC-3
Format/Info : Audio Coding 3
Mode extension : CM (complete main)
Codec ID : A_AC3
Duration : 1h 31mn
Bit rate mode : Constant
Bit rate : 448 Kbps
Channel(s) : 6 channels
Channel positions : Front: L C R, Side: L R, LFE
Sampling rate : 48.0 KHz
Bit depth : 16 bits
Compression mode : Lossy
Stream size : 292 MiB (3%)
Language : Russian
Default : No
Forced : No
Audio #3
ID : 3
Format : DTS
Format/Info : Digital Theater Systems
Codec ID : A_DTS
Duration : 1h 31mn
Bit rate mode : Constant
Bit rate : 1 510 Kbps
Channel(s) : 6 channels
Channel positions : Front: L C R, Side: L R, LFE
Sampling rate : 48.0 KHz
Bit depth : 24 bits
Compression mode : Lossy
Stream size : 984 MiB (12%)
Language : English
Default : Yes
Forced : No
Свернуть

Скринлист
Изображение
Свернуть

Скриншоты
Изображение
Изображение
Изображение
Изображение
Изображение
Изображение
Свернуть

Знаете ли Вы, что...
Инвазия в паразитологии и эпидемиологии — внедрении ксенобиотов в организм другого существа. (насекомого, животного, человека )
1) проникновение в организм паразитов с последующим их взаимодействием с организмом хозяина.
2) паразитарные заболевания, возбудителями которых являются животные или протисты.
Заболевания, вызываемые животными-эндопаразитами (гельминтозы — глистные инвазии, акаридозы, болезни животных, вызываемые оводами), все авторы однозначно относят к инвазиям. Менее ясно, употребим ли этот термин к болезням, которые вызываются насекомыми-эктопаразитами (таким, как педикулёз или фтириаз).
В большинстве старых учебников эпидемиологии и паразитологии к инвазиям отнесены и все заболевания, вызываемые гетеротрофными протистами (протозойные инвазии — малярия, трипаносомозы и др.). Во многих англоязычных источниках, а также в русскоязычной Википедии эта группа инфекционных заболеваний отнесена к инфекциям.
Свернуть
Не в сети
Профиль  
 Добавлено: 2012-10-04 19:46 (спустя 2 месяца 6 дней)
Супермодератор Инквизиции
Аватара пользователя
Стаж: 8 лет 3 месяца
Возраст: 51
Сообщений: 37873
Спасибок: 1089
Лайков: 2724
:sh_ok: ГАЗ-53 в Америке??? :sh_ok:
_________________
████████████ - сотри монеткой, чтобы получить пароль от этого аккаунта
Пират у копираста спиратил пиастры, копираст у пирата скопипастил фрегат :ps_ih:
Не в сети
Профиль  
 Добавлено: 2012-10-04 21:38 (спустя 1 час 51 минута)
Top-seeder
Аватара пользователя
Стаж: 8 лет 1 месяц
Возраст: 26
Сообщений: 17415
Спасибок: 316
Лайков: 45

Basil:

ГАЗ-53 в Америке???
из кокона выпал, не иначе...
_________________
ИзображениеИзображение Изображение Взял смайл - ставь ©!
Cкрытый текст
Изображение
Свернуть
Не в сети
Профиль  
Начать новую темуОтветить на тему  [ Сообщений: 3 ] 
Вы не можете начинать темы
Вы не можете отвечать на сообщения
Вы не можете редактировать свои сообщения
Вы не можете удалять свои сообщения