Правила форума

Здесь находятся раздачи, на которых не было полного источника (сида) более месяца.
Вы можете вернуть релиз в соответствующий раздел, для этого напишите нам в специальной теме и встаньте на раздачу.
Новые релизы, повторяющие релизы в архиве, повторами не считаются.
Начать новую темуОтветить на тему  [ 1 сообщение ] 
Сообщения
 Добавлено: 2012-05-05 01:11
Top-releaser
Аватара пользователя
Стаж: 7 лет 3 месяца
Возраст: 25
Сообщений: 1036
Спасибок: 2694
Лайков: 9
Искусство любить
L'art d'aimer


«В нескольких простых и не слишком простых примерах...»

Изображение


Год выхода: 2011
Страна: Франция

Жанр: комедия
Продолжительность: 01:25:25
Перевод: Профессиональное (многоголосое) [Лицензия]

Режиссер: Эмманюэль Муре
Сценарий: Эмманюэль Муре
Продюсер: Жорж Берманн, Фридерик Нидермайер
Оператор: Лорен Десме

В ролях: Эмманюэль Муре, Паскаль Арбийо, Ариан Аскарид, Фредерик Бель, Франсуа Клюзе, Жюли Депардье, Жюдит Годреш, Луи-До де Ланкесэ, Филипп Маньян, Станислас Мерхар

Описание: В момент, когда мы влюбляемся, тот определенный миг, производит в нас особенную музыку. Она разная для каждого и может вспомниться в неожиданные моменты.

Изображение

Изображение

Качество BDRip 1080p R5
Формат: Mkv

Видео: MPEG4 Video (H264) 1920x1040 23.98fps 10.8 Mbps
Аудио 1: (French)DTS 48000Hz 6ch 1 510 Kbps
Аудио 2: (Russian)DTS 48000Hz 6ch 1 510 Kbps
Subtitle: PGS

Изображение

MediaInfo
General
Unique ID : 233784616651810949022879158575054828094 (0xAFE14785195FBC148F05DA9EF319B23E)
Complete name : I:\Download\Iskustvo ljubit.DVD_RG(1080p).mkv
Format : Matroska
Format version : Version 2
File size : 8.24 GiB
Duration : 1h 25mn
Overall bit rate : 13.8 Mbps
Movie name : Iskustvo ljubit.2011.P.BDRip.1080p.Uniongang.tv by FSB
Encoded date : UTC 2012-05-04 16:28:22
Writing application : mkvmerge v5.5.0 ('Healer') built on Apr 6 2012 21:43:24
Writing library : libebml v1.2.3 + libmatroska v1.3.0

Video
ID : 1
Format : AVC
Format/Info : Advanced Video Codec
Format profile : High@L4.1
Format settings, CABAC : Yes
Format settings, ReFrames : 5 frames
Codec ID : V_MPEG4/ISO/AVC
Duration : 1h 25mn
Bit rate : 10.8 Mbps
Width : 1 920 pixels
Height : 1 040 pixels
Display aspect ratio : 16:9
Frame rate : 23.976 fps
Color space : YUV
Chroma subsampling : 4:2:0
Bit depth : 8 bits
Scan type : Progressive
Bits/(Pixel*Frame) : 0.225
Stream size : 6.28 GiB (76%)
Title : Iskustvo ljubit.2011.P.BDRip.1080p.Uniongang.tv
Writing library : x264 core 120 r2164+656 2ff844c
Encoding settings : cabac=1 / ref=5 / deblock=1:-3:-3 / analyse=0x3:0x113 / me=umh / subme=11 / psy=1 / fade_compensate=0.00 / psy_rd=1.10:0.10 / mixed_ref=1 / me_range=32 / chroma_me=1 / trellis=2 / 8x8dct=1 / cqm=0 / deadzone=21,11 / fast_pskip=1 / chroma_qp_offset=-3 / threads=6 / sliced_threads=0 / nr=0 / decimate=1 / interlaced=0 / bluray_compat=0 / constrained_intra=0 / fgo=0 / bframes=5 / b_pyramid=2 / b_adapt=2 / b_bias=0 / direct=3 / weightb=1 / open_gop=0 / weightp=2 / keyint=250 / keyint_min=24 / scenecut=40 / intra_refresh=0 / rc=2pass / mbtree=0 / bitrate=10789 / ratetol=1.0 / qcomp=0.60 / qpmin=0 / qpmax=69 / qpstep=4 / cplxblur=20.0 / qblur=0.5 / ip_ratio=1.40 / pb_ratio=1.30 / aq=1:1.00
Language : English
Default : Yes
Forced : No

Audio #1
ID : 2
Format : DTS
Format/Info : Digital Theater Systems
Codec ID : A_DTS
Duration : 1h 25mn
Bit rate mode : Constant
Bit rate : 1 510 Kbps
Channel(s) : 6 channels
Channel positions : Front: L C R, Side: L R, LFE
Sampling rate : 48.0 KHz
Bit depth : 24 bits
Compression mode : Lossy
Stream size : 923 MiB (11%)
Language : Russian
Default : Yes
Forced : No

Audio #2
ID : 3
Format : DTS
Format/Info : Digital Theater Systems
Codec ID : A_DTS
Duration : 1h 25mn
Bit rate mode : Constant
Bit rate : 1 510 Kbps
Channel(s) : 6 channels
Channel positions : Front: L C R, Side: L R, LFE
Sampling rate : 48.0 KHz
Bit depth : 24 bits
Compression mode : Lossy
Stream size : 923 MiB (11%)
Language : French
Default : No
Forced : No

Text
ID : 4
Format : PGS
Muxing mode : zlib
Codec ID : S_HDMV/PGS
Codec ID/Info : The same subtitle format used on BDs/HD-DVDs
Language : Russian
Default : No
Forced : No

Menu
00:00:00.000 : fr:00:00:00.000
00:05:30.372 : fr:00:05:30.372
00:12:19.530 : fr:00:12:19.530
00:18:04.583 : fr:00:18:04.583
00:26:21.330 : fr:00:26:21.330
00:32:59.060 : fr:00:32:59.060
00:35:40.972 : fr:00:35:40.972
00:38:36.231 : fr:00:38:36.231
00:47:31.265 : fr:00:47:31.265
00:52:07.082 : fr:00:52:07.082
00:57:21.188 : fr:00:57:21.188
01:02:46.513 : fr:01:02:46.513
01:08:00.410 : fr:01:08:00.410
01:17:36.068 : fr:01:17:36.068
01:22:50.799 : fr:01:22:50.799


Свернуть
Скриншоты

Изображение
Изображение
Изображение
Изображение
Изображение

Свернуть
Не в сети
Профиль  
Начать новую темуОтветить на тему  [ 1 сообщение ] 
Вы не можете начинать темы
Вы не можете отвечать на сообщения
Вы не можете редактировать свои сообщения
Вы не можете удалять свои сообщения