Правила форума

Здесь находятся раздачи, на которых не было полного источника (сида) более месяца.
Вы можете вернуть релиз в соответствующий раздел, для этого напишите нам в специальной теме и встаньте на раздачу.
Новые релизы, повторяющие релизы в архиве, повторами не считаются.
Начать новую темуОтветить на тему  [ 1 сообщение ] 
Сообщения
 Добавлено: 2011-12-07 16:01
Top-releaser
Стаж: 7 лет 4 месяца
Возраст: 33
Сообщений: 409
Спасибок: 6402
Лайков: 6
Изображение
Испытание королевского стрелка Шарпа / Sharpe's Challenge

Год выпуска: 2006
Страна: Великобритания
Жанр: боевик, приключения, военный, история
Продолжительность: 01:45:47
Перевод: Профессиональный (многоголосый) лицензия

Режиссер: Том Клегг (Tom Clegg)
Сценарий: Расселл Льюис / Russell Lewis, Бернард Корнвэлл / Bernard Cornwell
Продюсер: Малкольм Крэддок / Malcolm Craddock, Мьюир Сазерленд / Muir Sutherland, Кэтрин Митчел / Kathryn Mitchell, Джулия Стэннард / Julia Stannard, Стюарт Сазерленд / Stuart Sutherland
Оператор: Найджел Уиллокби / Nigel Willoughby
Композитор: Доминик Малдауни / Dominic Muldowney, Джон Тэмс / John Tams

В ролях: Шон Бин (Sharpe), Дара О’Мэлли (Harper), Тоби Стивенс (Dodd), Падма Лакшми (Madhuvanthi), Орельен Рекуан (Gudin), Люси Браун (Celia Burroughs), Майкл Кокрейн (Simmerson), Али Кхан (Mohan Singh), Хью Фрейзер (Wellington), Питер-Хьюго Дэйли (Bickerstaff), Тьерри Ханчиссе (Bonnet), Karan Panthaky (Khande Rao)

Описание: 1817 год. Прошло всего два года с момента, когда Наполеон был окончательно разгромлен в битве при Ватерлоо. Но для настоящих солдат империи всегда найдется работа. На этот раз Ричард Шарп отправляется в Индию. Ему предстоит выяснить, какие козни против британской короны замышляет один из тамошних наследных принцев. По прибытии в штат Раджастан бравого стрелка ждет неприятный сюрприз. Похищена дочь генерал-губернатора. Все силы брошены на поиски. Между тем обстановка все больше накаляется, зреют повстанческие настроения, и миссия становится все менее выполнимой...

Рейтинг
Kinopoisk.RU: 7.277 (214)
Imdb.com: 7.40 (1 348)

Качество: BD Remux 1080p
Формат: BDAV
Видео: AVC; 1920x1080 (16:9); 17670 Kbps; 23,976 fps; 0,355 bpp
Аудио 1: Rus; AC3; 192 Kbps; CBR; 2 ch - MVO
Аудио 2: Eng; DTS-HD; VBR; 6 ch - Eng
Аудио 3: Eng; AC3; 224 Kbps; CBR; 2 ch - Commentary
Субтитры: Russian, German

Релиз: Изображение
Mediainfo
General
ID : 1 (0x1)
Complete name : D:\uTorrent\SHARPE'S_CHALLENGE_2006_BD-REMUX\BDMV\STREAM\00000.m2ts
Format : BDAV
Format/Info : Blu-ray Video
File size : 15.8 GiB
Duration : 1h 45mn
Overall bit rate mode : Variable
Overall bit rate : 21.4 Mbps
Maximum Overall bit rate : 35.5 Mbps
Video
ID : 4113 (0x1011)
Menu ID : 1 (0x1)
Format : AVC
Format/Info : Advanced Video Codec
Format profile : High@L4.1
Format settings, CABAC : Yes
Format settings, ReFrames : 4 frames
Format settings, GOP : M=3, N=24
Codec ID : 27
Duration : 1h 45mn
Bit rate mode : Variable
Bit rate : 17.7 Mbps
Maximum bit rate : 30.0 Mbps
Width : 1 920 pixels
Height : 1 080 pixels
Display aspect ratio : 16:9
Frame rate : 23.976 fps
Standard : NTSC
Color space : YUV
Chroma subsampling : 4:2:0
Bit depth : 8 bits
Scan type : Progressive
Bits/(Pixel*Frame) : 0.355
Stream size : 13.1 GiB (83%)
Color primaries : BT.709-5, BT.1361, IEC 61966-2-4, SMPTE RP177
Transfer characteristics : BT.709-5, BT.1361
Matrix coefficients : BT.709-5, BT.1361, IEC 61966-2-4 709, SMPTE RP177
Audio 1
ID : 4352 (0x1100)
Menu ID : 1 (0x1)
Format : AC-3
Format/Info : Audio Coding 3
Mode extension : CM (complete main)
Codec ID : 129
Duration : 1h 45mn
Bit rate mode : Constant
Bit rate : 192 Kbps
Channel(s) : 2 channels
Channel positions : Front: L R
Sampling rate : 48.0 KHz
Bit depth : 16 bits
Compression mode : Lossy
Stream size : 145 MiB (1%)
Language : Russian
Audio 2
ID : 4353 (0x1101)
Menu ID : 1 (0x1)
Format : DTS
Format/Info : Digital Theater Systems
Format profile : MA / Core
Muxing mode : Stream extension
Codec ID : 134
Duration : 1h 45mn
Bit rate mode : Variable
Bit rate : 2 461 Kbps / 1 510 Kbps
Channel(s) : 6 channels
Channel positions : Front: L C R, Side: L R, LFE
Sampling rate : 48.0 KHz
Bit depth : 24 bits
Compression mode : Lossless / Lossy
Language : English
Audio 3
ID : 4354 (0x1102)
Menu ID : 1 (0x1)
Format : AC-3
Format/Info : Audio Coding 3
Mode extension : CM (complete main)
Codec ID : 129
Duration : 1h 45mn
Bit rate mode : Constant
Bit rate : 224 Kbps
Channel(s) : 2 channels
Channel positions : Front: L R
Sampling rate : 48.0 KHz
Bit depth : 16 bits
Compression mode : Lossy
Stream size : 169 MiB (1%)
Language : English
Text 1
ID : 4608 (0x1200)
Menu ID : 1 (0x1)
Format : PGS
Codec ID : 144
Delay relative to video : 5s 881ms
Language : Russian
Text 2
ID : 4609 (0x1201)
Menu ID : 1 (0x1)
Format : PGS
Codec ID : 144
Delay relative to video : 3s 545ms
Language : German
Свернуть
Скриншоты
Изображение

Изображение

Изображение
Свернуть
Не в сети
Профиль  
Начать новую темуОтветить на тему  [ 1 сообщение ] 
Вы не можете начинать темы
Вы не можете отвечать на сообщения
Вы не можете редактировать свои сообщения
Вы не можете удалять свои сообщения