Правила форума

Здесь находятся раздачи, на которых не было полного источника (сида) более месяца.
Вы можете вернуть релиз в соответствующий раздел, для этого напишите нам в специальной теме и встаньте на раздачу.
Новые релизы, повторяющие релизы в архиве, повторами не считаются.
Начать новую темуОтветить на тему  [ Сообщений: 3 ] 
Сообщения
 Добавлено: 2011-08-25 22:07
Аватара пользователя
Стаж: 5 лет 5 месяцев
Возраст: 30
Сообщений: 353
Спасибок: 7455
Испытание свадьбой / Jumping the Broom

Изображение


Год выпуска: 2011
Страна: США (Our Stories Films, Sony Pictures Entertainment (SPE) Worldwide Acquisitions Group)
Слоган: «The Taylors Are Downtown»
Жанр: комедия
Продолжительность: 1:25:43
Перевод: Оригинальная звуковая дорожка + Оригинальная звуковая дорожка + Профессиональный (многоголосый закадровый) + Оригинальная звуковая дорожка
Субтитры: Английские, Полские, Арабские, Греческие, Португальские, Турецкие, Украинские

Режиссёр: Салим Акил / Salim Akil
Сценарист: Элизабет Хантер, Арлин Гиббс
Продюсер: Трэйси Е. Эдмондс, Элизабет Хантер, T.D. Jakes
Оператор: Анастас Н. Микос
Композитор: Эд Ширмёр

В ролях: Анджела Бассетт, Пола Пэттон, Лас Алонсо, Лоретта Дивайн, Миган Гуд, Таша Смит, Джули Боуэн, ДеРэй Дэвис, Валери Петтифорд, Майк Еппс...

Описание: На свадьбе между родственниками жениха и невесты, принадлежащим различным социальным кругам, происходит целая череда забавных недоразумений, грозящих перерасти в настоящую войну.

Доп.информация:Вы приглашены, прыжки через метлу и другие свадебные традиции
Мировая премьера: 6 мая 2011
Бюджет: $6 600 000
Кассовые сборы: + $415 216 = $37 710 610

Изображение Изображение Изображение

Качество: DVD9 R5
Формат: DVD Video
Видео кодек: MPEG2
Аудио кодек: AC3 (Dolby Digital)
Видео: PAL 16:9 (720x576(0.441)) MPEG Video, 25,000 кадр/сек, 4568 Кбит/сек
Аудио #1: English (Dolby AC3, 6 ch) 448 Кбит/сек, 48,0 КГц [Оригинальная звуковая дорожка]
Аудио #2: Polish (Dolby AC3, 6 ch) 448 Кбит/сек, 48,0 КГц [Оригинальная звуковая дорожка]
Аудио #3: Russian (Dolby AC3, 6 ch) 448 Кбит/сек, 48,0 КГц [Профессиональный (многоголосый закадровый)]
Аудио #4: English (Dolby AC3, 2 ch) 192 Кбит/сек, 48,0 КГц [Оригинальная звуковая дорожка]
Субтитры: Английские, Полские, Арабские, Греческие, Португальские, Турецкие, Украинские



"DVDInfo"
Title:
Size: 6.15 Gb ( 6 446 026 KBytes ) - DVD-9
Enabled regions: 1, 2, 3, 4, 5, 6, 7, 8

VTS_01 :
Play Length:
Video: PAL 16:9 (720x576) VBR, Auto Pan&Scan

VTS_02 :
Play Length:
Video: PAL 16:9 (720x576) VBR, Auto Pan&Scan

VTS_03 :
Play Length: 01:47:49
Video: PAL 16:9 (720x576) VBR, Auto Pan&Scan
Audio:
English (Dolby AC3, 6 ch)
Polish (Dolby AC3, 6 ch)
Russian (Dolby AC3, 6 ch)
English (Dolby AC3, 2 ch)
Subtitles:
English
Polish
Russian
Arabic
Greek
Portugues
Turkish
Ukrainian
English

VTS_04 :
Play Length: 00:22:44+00:06:13
Video: PAL 16:9 (720x576) VBR, Auto Pan&Scan
Audio:
English (Dolby AC3, 2 ch)
Subtitles:
English

VTS_05 :
Play Length:
Video: PAL 16:9 (720x576) VBR, Auto Pan&Scan

VTS_06 :
Play Length:
Video: PAL 16:9 (720x576) VBR, Auto Pan&Scan

VTS_07 :
Play Length:
Video: PAL 16:9 (720x576) VBR, Auto Pan&Scan

VTS_08 :
Play Length:
Video: PAL 16:9 (720x576) VBR, Auto Pan&Scan

VTS_09 :
Play Length: 00:00:01
Video: PAL 16:9 (720x576) VBR, Auto Pan&Scan

VTS_10 :
Play Length: 00:00:01
Video: PAL 4:3 (720x576) VBR
Subtitles:
Not specified
Not specified
Not specified
Not specified
Not specified
Not specified
Not specified
Not specified
Not specified
Not specified
Not specified
Not specified
Not specified
Not specified
Not specified
Not specified
Not specified
Not specified
Not specified
Not specified
Not specified
Not specified
Not specified
Not specified
Not specified
Not specified
Not specified
Not specified
Not specified

VTS_11 :
Play Length: 00:00:01
Video: PAL 4:3 (720x576) VBR
Subtitles:
Not specified
Not specified
Not specified
Not specified
Not specified
Not specified
Not specified
Not specified
Not specified
Not specified
Not specified
Not specified
Not specified
Not specified
Not specified
Not specified
Not specified
Not specified
Not specified
Not specified
Not specified
Not specified
Not specified
Not specified
Not specified
Not specified
Not specified
Not specified
Not specified

VTS_12 :
Play Length:
Video: PAL 16:9 (720x576) VBR, Auto Pan&Scan

VTS_13 :
Play Length:
Video: PAL 16:9 (720x576) VBR, Auto Pan&Scan

VTS_14 :
Play Length: 00:00:10+00:00:12+00:00:08+00:00:38+00:00:05
Video: PAL 16:9 (720x576) VBR, Auto Pan&Scan
Audio:
Not specified (Dolby AC3, 2 ch)

VTS_15 :
Play Length:
Video: PAL 4:3 (720x576) VBR

VTS_16 :
Play Length: 00:00:05
Video: PAL 16:9 (720x576) VBR, Auto Pan&Scan
Audio:
Not specified (Dolby AC3, 2 ch)

VTS_17 :
Play Length:
Video: PAL 16:9 (720x576) VBR, Auto Pan&Scan

VTS_18 :
Play Length:
Video: PAL 16:9 (720x576) VBR, Auto Letterboxed
Свернуть

"MediaInfo"
Общее
Полное имя : G:\Новинки 2011\Ispitanie svadboi.DVD9\VIDEO_TS\VTS_03_1.VOB
Формат : MPEG-PS
Размер файла : 1024 Мбайт
Продолжительность : 22 м.
Общий поток : 6228 Кбит/сек

Видео
Идентификатор : 224 (0xE0)
Формат : MPEG Video
Версия формата : Version 2
Профиль формата : Main@Main
Параметр BVOP формата : Да
Параметр матрицы формата : Выборочная
Продолжительность : 22 м.
Вид битрейта : Переменный
Битрейт : 4568 Кбит/сек
Максимальный битрейт : 9800 Кбит/сек
Ширина : 720 пикселей
Высота : 576 пикселей
Соотношение сторон : 16:9
Частота кадров : 25,000 кадров/сек
Стандарт вещания : PAL
Цветовое пространство : YUV
Субдискретизация насыщенности : 4:2:0
Битовая глубина : 8 бит
Тип развёртки : Прогрессивная
Порядок развёртки : Верхнее поле первое
Метод сжатия : С потерями
Бит/(Пиксели*Кадры) : 0.441
Размер потока : 751 Мбайт (73%)

Аудио #1
Идентификатор : 189 (0xBD)-128 (0x80)
Формат : AC-3
Формат/Информация : Audio Coding 3
Расширение режима : CM (complete main)
Режим смешивания : DVD-Video
Продолжительность : 22 м.
Вид битрейта : Постоянный
Битрейт : 448 Кбит/сек
Каналы : 6 каналов
Расположение каналов : Front: L C R, Side: L R, LFE
Частота : 48,0 КГц
Битовая глубина : 16 бит
Метод сжатия : С потерями
Размер потока : 73,6 Мбайт (7%)

Аудио #2
Идентификатор : 189 (0xBD)-129 (0x81)
Формат : AC-3
Формат/Информация : Audio Coding 3
Расширение режима : CM (complete main)
Режим смешивания : DVD-Video
Продолжительность : 22 м.
Вид битрейта : Постоянный
Битрейт : 448 Кбит/сек
Каналы : 6 каналов
Расположение каналов : Front: L C R, Side: L R, LFE
Частота : 48,0 КГц
Битовая глубина : 16 бит
Метод сжатия : С потерями
Размер потока : 73,6 Мбайт (7%)

Аудио #3
Идентификатор : 189 (0xBD)-130 (0x82)
Формат : AC-3
Формат/Информация : Audio Coding 3
Расширение режима : CM (complete main)
Режим смешивания : DVD-Video
Продолжительность : 22 м.
Вид битрейта : Постоянный
Битрейт : 448 Кбит/сек
Каналы : 6 каналов
Расположение каналов : Front: L C R, Side: L R, LFE
Частота : 48,0 КГц
Битовая глубина : 16 бит
Метод сжатия : С потерями
Размер потока : 73,6 Мбайт (7%)

Аудио #4
Идентификатор : 189 (0xBD)-131 (0x83)
Формат : AC-3
Формат/Информация : Audio Coding 3
Профиль формата : Dolby Digital
Расширение режима : CM (complete main)
Режим смешивания : DVD-Video
Продолжительность : 22 м.
Вид битрейта : Постоянный
Битрейт : 192 Кбит/сек
Каналы : 2 канала
Расположение каналов : Front: L R
Частота : 48,0 КГц
Битовая глубина : 16 бит
Метод сжатия : С потерями
Размер потока : 31,6 Мбайт (3%)

Текст #1
Идентификатор : 189 (0xBD)-32 (0x20)
Формат : RLE
Формат/Информация : Run-length encoding
Режим смешивания : DVD-Video

Текст #2
Идентификатор : 189 (0xBD)-33 (0x21)
Формат : RLE
Формат/Информация : Run-length encoding
Режим смешивания : DVD-Video

Текст #3
Идентификатор : 189 (0xBD)-35 (0x23)
Формат : RLE
Формат/Информация : Run-length encoding
Режим смешивания : DVD-Video

Текст #4
Идентификатор : 189 (0xBD)-36 (0x24)
Формат : RLE
Формат/Информация : Run-length encoding
Режим смешивания : DVD-Video

Текст #5
Идентификатор : 189 (0xBD)-37 (0x25)
Формат : RLE
Формат/Информация : Run-length encoding
Режим смешивания : DVD-Video

Текст #6
Идентификатор : 189 (0xBD)-38 (0x26)
Формат : RLE
Формат/Информация : Run-length encoding
Режим смешивания : DVD-Video

Текст #7
Идентификатор : 189 (0xBD)-39 (0x27)
Формат : RLE
Формат/Информация : Run-length encoding
Режим смешивания : DVD-Video

Текст #8
Идентификатор : 189 (0xBD)-40 (0x28)
Формат : RLE
Формат/Информация : Run-length encoding
Режим смешивания : DVD-Video

Свернуть

Скриншоты
Скриншоты меню
Изображение
Изображение Изображение Изображение Изображение
Свернуть

Изображение Изображение Изображение Изображение Изображение Изображение Изображение Изображение
Свернуть

Изображение
Не в сети
Профиль  
 Добавлено: 2011-08-26 10:37 (спустя 12 часов)
Аватара пользователя
Стаж: 5 лет 5 месяцев
Возраст: 30
Сообщений: 353
Спасибок: 7455
Торент перезалит,снята региональная защита с диска.Приношу свои извинения! :-[
Не в сети
Профиль  
 Добавлено: 2011-09-04 11:33 (спустя 9 дней)
Аватара пользователя
Стаж: 8 лет 3 месяца
Сообщений: 15
кто смотрел- отпишись.....
Не в сети
Профиль  
Начать новую темуОтветить на тему  [ Сообщений: 3 ] 
Вы не можете начинать темы
Вы не можете отвечать на сообщения
Вы не можете редактировать свои сообщения
Вы не можете удалять свои сообщения