Правила форума

Здесь находятся раздачи, на которых не было полного источника (сида) более месяца.
Вы можете вернуть релиз в соответствующий раздел, для этого напишите нам в специальной теме и встаньте на раздачу.
Новые релизы, повторяющие релизы в архиве, повторами не считаются.
Начать новую темуОтветить на тему  [ Сообщений: 3 ] 
Сообщения
 Добавлено: 2011-08-29 17:33
Модератор релиз-группы
Аватара пользователя
Стаж: 9 лет 1 месяц
Возраст: 97
Сообщений: 11660
Спасибок: 6533
Лайков: 269
Испытание свадьбой / Jumping the Broom

Изображение


Год выпуска: 2011
Страна: сша
Жанр: комедия
Продолжительность: 01:52:24
Перевод: Профессиональный (многоголосый закадровый) Лицензия
Оригинальная звуковая дорожка
Субтитры: Английские

Режиссёр: Салим Акил / Salim Akil
В ролях: Анджела Бассетт
Пола Пэттон
Лас Алонсо
Лоретта Дивайн,Миган Гуд,Таша Смит,Джули Боуэн,ДеРэй Дэвис,Валери Петтифорд,Майк Еппс
Описание: На свадьбе между родственниками жениха и невесты, принадлежащим различным социальным кругам, происходит целая череда забавных недоразумений, грозящих перерасти в настоящую войну.

Изображение


Качество: BDRip
Формат: mkv
Видео кодек: MPEG-4(AVC)
Аудио кодек: AC3 (Dolby Digital)
Видео: AVC; 1920x1080 (16:9); 10348 Kbps; 23,976 fps; 0,208 bpp
Аудио #1: Russian: 48 kHz, AC3, 3/2 (L,C,R,l,r) + LFE ch, ~448.00 kbps [Профессиональный (многоголосый закадровый)]
Аудио #2: English: 48 kHz, DTS, 3/2 (L,C,R,l,r) + LFE ch, ~1536.00 kbps avg [Оригинальная звуковая дорожка]
Субтитры: Английские
Скриншоты
Изображение
Изображение
Изображение
Изображение
Свернуть

Mi
ormat : Matroska
Format version : Version 2
File size : 9.85 GiB
Duration : 1h 52mn
Overall bit rate : 12.5 Mbps
Encoded date : UTC 2011-08-26 17:18:03
Writing application : mkvmerge v4.9.1 ('Ich will') сборка от Jul 11 2011 23:53:15
Writing library : libebml v1.2.1 + libmatroska v1.1.1

Video
ID : 1
Format : AVC
Format/Info : Advanced Video Codec
Format profile : High@L4.1
Format settings, CABAC : Yes
Format settings, ReFrames : 4 frames
Codec ID : V_MPEG4/ISO/AVC
Duration : 1h 52mn
Bit rate : 10.6 Mbps
Width : 1 920 pixels
Height : 1 080 pixels
Display aspect ratio : 16:9
Frame rate : 23.976 fps
Color space : YUV
Chroma subsampling : 4:2:0
Bit depth : 8 bits
Scan type : Progressive
Bits/(Pixel*Frame) : 0.213
Stream size : 8.12 GiB (82%)
Title : Jumping.the.Broom.2011
Writing library : x264 core 114 r1924 08d04a4
Encoding settings : cabac=1 / ref=4 / deblock=1:-3:-3 / analyse=0x3:0x113 / me=umh / subme=10 / psy=1 / psy_rd=1.00:0.05 / mixed_ref=1 / me_range=48 / chroma_me=1 / trellis=2 / 8x8dct=1 / cqm=2 / deadzone=21,11 / fast_pskip=0 / chroma_qp_offset=-2 / threads=12 / sliced_threads=0 / nr=0 / decimate=1 / interlaced=0 / constrained_intra=0 / bframes=6 / b_pyramid=2 / b_adapt=2 / b_bias=0 / direct=3 / weightb=1 / open_gop=0 / weightp=2 / keyint=250 / keyint_min=23 / scenecut=40 / intra_refresh=0 / rc_lookahead=60 / rc=2pass / mbtree=1 / bitrate=10587 / ratetol=1.0 / qcomp=0.70 / qpmin=1 / qpmax=63 / qpstep=4 / cplxblur=20.0 / qblur=0.5 / vbv_maxrate=40000 / vbv_bufsize=40000 / nal_hrd=none / ip_ratio=1.40 / aq=2:0.90
Language : English

Audio #1
ID : 2
Format : AC-3
Format/Info : Audio Coding 3
Mode extension : CM (complete main)
Codec ID : A_AC3
Duration : 1h 52mn
Bit rate mode : Constant
Bit rate : 448 Kbps
Channel(s) : 6 channels
Channel positions : Front: L C R, Side: L R, LFE
Sampling rate : 48.0 KHz
Bit depth : 16 bits
Compression mode : Lossy
Stream size : 360 MiB (4%)
Title : R5
Language : Russian

Audio #2
ID : 3
Format : DTS
Format/Info : Digital Theater Systems
Codec ID : A_DTS
Duration : 1h 52mn
Bit rate mode : Constant
Bit rate : 1 510 Kbps
Channel(s) : 6 channels
Channel positions : Front: L C R, Side: L R, LFE
Sampling rate : 48.0 KHz
Bit depth : 24 bits
Compression mode : Lossy
Stream size : 1.19 GiB (12%)
Title : Original
Language : English

Text
ID : 4
Format : UTF-8
Codec ID : S_TEXT/UTF8
Codec ID/Info : UTF-8 Plain Text
Title : Eng
Language : English
Свернуть
_________________
Изображение
Не в сети
Профиль  
 Добавлено: 2011-08-30 18:37 (спустя 1 день 1 час)
Стаж: 5 лет 5 месяцев
Возраст: 27
Сообщений: 73
Отличный Фильм Для семейного просмотра !
_________________
ПРИВОЖУ ВСЕ ИЗ АМЕРИКИ: iPHone, Imac, ШМОТКИ !!!! ДЕШЕВО Всего 7% за услуги !!!
89036007333
viewtopic.php?f=1696&t=424653
Не в сети
Профиль  
 Добавлено: 2011-09-04 12:22 (спустя 4 дня)
Аватара пользователя
Стаж: 8 лет 10 месяцев
Сообщений: 703
Спасибок: 11142
Лайков: 2
Ага, сейчас глянем. -)
Не в сети
Профиль  
Начать новую темуОтветить на тему  [ Сообщений: 3 ] 
Вы не можете начинать темы
Вы не можете отвечать на сообщения
Вы не можете редактировать свои сообщения
Вы не можете удалять свои сообщения