Правила форума

Здесь находятся раздачи, на которых не было полного источника (сида) более месяца.
Вы можете вернуть релиз в соответствующий раздел, для этого напишите нам в специальной теме и встаньте на раздачу.
Новые релизы, повторяющие релизы в архиве, повторами не считаются.
Начать новую темуОтветить на тему  [ Сообщений: 7 ] 
Сообщения
 Добавлено: 2011-07-10 19:05
Модератор
Аватара пользователя
Стаж: 8 лет 1 месяц
Возраст: 20
Сообщений: 32130
Спасибок: 98568
Лайков: 80
Изображение

Железный рыцарь / Ironclad


Год выпуска: 2011
Страна: США, Великобритания
Слоган: «И хлынет кровь»

Жанр: боевик, приключения
Продолжительность: 02:00:39
Перевод: Профессиональный (полное дублирование) [с CAMRip]

Режиссер: Джонатан Инглиш
В ролях: Джеймс Пьюрфой, Кейт Мара, Пол Джаматти, Брайан Кокс, Джейсон Флеминг, Чарльз Дэнс, Дерек Джекоби, Маккензи Крук, Владимир Кулич, Джэми Формен
Бюджет: $25 000 000
Сборы в России: $768 715

Мировая премьера: 4 марта 2011
Релиз на DVD: 12 июля 2011, «West Video»
Релиз на Blu-ray: 12 июля 2011, «West Video»
Описание: В 13-ом веке группа рыцарей Тамплиеров защищает Рочестерский замок от тирании короля Ионна.
Изображение
MPAA: Изображение - Лицам до 17 лет обязательно присутствие взрослого
Качество: BDRip 720p
Формат: Matroska

Видео: 4976 kb/s, 1280x720, 24.000 fps
Аудио: Russian: MP3, 128 kb/s (2 ch) / English: DTS, 1510 kb/s (6 ch)
Субтитры: нет
MI
H:Zheleznij.rytzar.2011.Dc.BDRip.720p.mkv
General
Complete name : H:Zheleznij.rytzar.2011.Dc.BDRip.720p.mkv
Format : Matroska
File size : 5.58 GiB
Duration : 2h 0mn
Overall bit rate : 6 615 Kbps
Encoded date : UTC 2011-07-10 11:26:11
Writing application : mkvmerge v3.4.0 ('Rapunzel') сборка от May 15 2010 09:38:20
Writing library : libebml v0.8.0 + libmatroska v0.9.0
Video #1
ID : 1
Format : AVC
Format/Info : Advanced Video Codec
Format profile : High@L4.1
Format settings, CABAC : Yes
Format settings, ReFrames : 5 frames
Muxing mode : Container profile=Unknown@4.1
Codec ID : V_MPEG4/ISO/AVC
Duration : 2h 0mn
Bit rate : 4 846 Kbps
Nominal bit rate : 4 976 Kbps
Width : 1 280 pixels
Height : 720 pixels
Display aspect ratio : 16:9
Frame rate : 24.000 fps
Resolution : 24 bits
Colorimetry : 4:2:0
Scan type : Progressive
Bits/(Pixel*Frame) : 0.219
Stream size : 4.08 GiB (73%)
Writing library : x264 core 115 r2008 4c552d8
Encoding settings : cabac=1 / ref=5 / deblock=1:0:0 / analyse=0x3:0x133 / me=umh / subme=7 / psy=1 / psy_rd=1.00:0.00 / mixed_ref=1 / me_range=16 / chroma_me=1 / trellis=1 / 8x8dct=1 / cqm=0 / deadzone=21,11 / fast_pskip=1 / chroma_qp_offset=-2 / threads=16 / sliced_threads=0 / nr=0 / decimate=1 / interlaced=0 / bluray_compat=0 / constrained_intra=0 / bframes=3 / b_pyramid=2 / b_adapt=2 / b_bias=0 / direct=1 / weightb=1 / open_gop=0 / weightp=2 / keyint=250 / keyint_min=24 / scenecut=40 / intra_refresh=0 / rc_lookahead=40 / rc=2pass / mbtree=1 / bitrate=4976 / ratetol=1.0 / qcomp=0.60 / qpmin=10 / qpmax=51 / qpstep=4 / cplxblur=20.0 / qblur=0.5 / vbv_maxrate=40000 / vbv_bufsize=30000 / nal_hrd=none / ip_ratio=1.40 / aq=1:1.00
Language : English
Audio #2
ID : 2
Format : MPEG Audio
Format version : Version 1
Format profile : Layer 3
Codec ID : A_MPEG/L3
Codec ID/Hint : MP3
Duration : 2h 0mn
Bit rate mode : Constant
Bit rate : 128 Kbps
Channel(s) : 2 channels
Sampling rate : 48.0 KHz
Resolution : 16 bits
Stream size : 110 MiB (2%)
Title : MP3 2.0 128 kb/s
Language : Russian
Audio #3
ID : 3
Format : DTS
Format/Info : Digital Theater Systems
Codec ID : A_DTS
Duration : 2h 0mn
Bit rate mode : Constant
Bit rate : 1 510 Kbps
Channel(s) : 6 channels
Channel positions : Front: L C R, Surround: L R, LFE
Sampling rate : 48.0 KHz
Resolution : 24 bits
Video delay : 11ms
Stream size : 1.27 GiB (23%)
Title : DTS 5.1 1510 kb/s
Language : English
Свернуть
Знаете ли Вы, что...
  • Замок Рочестер расположен в одноимённом городе в графстве Кент. Это один из первых каменных замков в Англии и самый высокий из них. Рочестер прикрывает путь к Лондону с юга и, наряду с Виндзорoм и Беркампстэдом, является одним из укреплённых узлов на дальних подступах к Лондону.
  • На ранней стадии разработки проекта за ним была закреплена Меган Фокс. Позднее её заменила Кейт Мара.
  • Одну из ролей в фильме должен был сыграть 86-летний на тот момент патриарх британского кино Ричард Эттенборо, который вынужден был отказаться от этого по состоянию здоровья.
  • Из-за отсутствия необходимой финансовой поддержки в 2009 году бюджет фильма был существенно урезан. Это привело к практически полной замене всех уже подписавшихся на участие в проекте актёров второго плана.
  • Для съёмок фильма на территории студии Dragon International Film в Уэльсе была создана максимально приближённая к реальности копия замка Рочестер.
  • «Железный рыцарь» стал самым крупным и масштабным независимым проектом, когда-либо снимавшимся в Уэльсе.
Свернуть
Скриншоты
Изображение

Изображение

Изображение

Изображение
Свернуть
Не в сети
Профиль  
 Добавлено: 2011-07-13 07:53 (спустя 2 дня 12 часов)
Аватара пользователя
Стаж: 8 лет 11 месяцев
Сообщений: 515
Спасибок: 39
Лайков: 49
Чё то разрешение маловато. Небуду пока качать. Подожду пока не выложат фулэйчди 1920*1080р, а ещё лучше подожду когда выложат гиперфулэйчди 3856*1789рр на Пинкрэйдиске.
Не в сети
Профиль  
 Добавлено: 2011-07-13 08:30 (спустя 36 минут)
Модератор
Аватара пользователя
Стаж: 8 лет 1 месяц
Возраст: 20
Сообщений: 32130
Спасибок: 98568
Лайков: 80
Микки
а звук из толчка тебя не смущает??
Не в сети
Профиль  
 Добавлено: 2011-07-13 17:21 (спустя 8 часов)
Аватара пользователя
Стаж: 8 лет 11 месяцев
Сообщений: 515
Спасибок: 39
Лайков: 49

Костян236:

Микки
а звук из толчка тебя не смущает??

... и звук чё то не ахти, DTS-HD Master Audio меня уже не вставляет, дождуська я Ultra-Mega Unreal Sound 12.1 каналов, 384 Mhz на канал.
Не в сети
Профиль  
 Добавлено: 2011-08-08 20:38 (спустя 26 дней)
Аватара пользователя
Стаж: 8 лет 3 месяца
Возраст: 43
Сообщений: 3290
Спасибок: 21012
Лайков: 3
viewtopic.php?f=1750&t=42012
_________________
Изображение
Не в сети
Профиль  
 Добавлено: 2011-08-08 20:39 (спустя 1 минута)
Модератор
Аватара пользователя
Стаж: 8 лет 1 месяц
Возраст: 20
Сообщений: 32130
Спасибок: 98568
Лайков: 80
Запрошенной темы не существует.
Не в сети
Профиль  
 Добавлено: 2012-01-28 23:33 (спустя 5 месяцев 20 дней)
Стаж: 4 года 10 месяцев
идите в жопу
Не в сети
Профиль  
Начать новую темуОтветить на тему  [ Сообщений: 7 ] 
Вы не можете начинать темы
Вы не можете отвечать на сообщения
Вы не можете редактировать свои сообщения
Вы не можете удалять свои сообщения
cron