Правила форума

Здесь находятся раздачи, на которых не было полного источника (сида) более месяца.
Вы можете вернуть релиз в соответствующий раздел, для этого напишите нам в специальной теме и встаньте на раздачу.
Новые релизы, повторяющие релизы в архиве, повторами не считаются.
Начать новую темуОтветить на тему  [ Сообщений: 6 ] 
Сообщения
 Добавлено: 2011-08-08 19:58
Модератор
Аватара пользователя
Стаж: 8 лет 1 месяц
Сообщений: 1991
Спасибок: 129863
Лайков: 20
Железный рыцарь / Ironclad


«И хлынет кровь»



Изображение
Год выпуска: 2011
Страна: Изображение США, Изображение Германия, Изображение Великобритания
Жанр: боевик, приключения
Продолжительность:
02:00:40

Перевод: Профессиональный (дубляж) [Лицензия]


Режиссер: Джонатан Инглиш
Сценарий: Джонатан Инглиш, Эрик Кастел, Стивен МакДул
Продюсер: Джонатан Инглиш, Рик Бенаттар, Эндрю Дж. Кертис, Гленн Кендрик Экерманн, Джон Эвангелидес
Оператор: Дэвид Эггби
Композитор: Лорни Бэлфи

В ролях:
Джеймс Пьюрфой (Marshall), Пол Джаматти (King John), Брайан Кокс (Albany), Кейт Мара (Lady Isabel), Джейсон Флеминг (Beckett), Чарльз Дэнс (Archbishop Langton), Дерек Джекоби (Cornhill), Маккензи Крук (Marks), Владимир Кулич (Tiberius), Бри Конден (Agnes), Джэми Формен (Coteral), Анайрин Барнард (Guy)
Дублёры: Василий Дахненко (Marshall) (Marshall), Сергей Бурунов (King John) (King John), Алексей Колган (Albany) (Albany), Наталья Грачева (Lady Isabel) (Lady Isabel), Радик Мухаметзянов (Beckett) (Beckett), Владимир Антоник (Archbishop Langton) (Archbishop Langton), Олег Форостенко (Cornhill) (Cornhill), Денис Беспалый (Tiberius) (Tiberius), Борис Быстров (Coteral) (Coteral), Прохор Чеховской (Guy) (Guy), Илья Бледный, Диомид Виноградов

Описание: В 13-ом веке группа рыцарей Тамплиеров защищает Рочестерский замок от тирании короля Ионна.


Изображение: 6.732 (1 635 votes)
Изображение: 6.20 (4 209 votes)

MPAA: Изображение - Лицам до 17 лет обязательно присутствие взрослого


Бюджет: $25 000 000
Сборы в России: $768 715
Мировая премьера: 4 марта 2011
Изображение Релиз на DVD: 16 августа 2011, «West Video»
Изображение Релиз на Blu-ray: 16 августа 2011, «West Video»

Релиз группы: Изображение


Качество: BDRip 720p [DON]

Формат: MKV
Видео: 7120 kb/s, 1280x720
Аудио: Russian: AC3, 384 kb/s (6 ch) / English: AC3, 640 kb/s (6 ch)
Субтитры: English


BDInfo
H:\Zheleznij.rytzar.2011.D.BDRip.720p.mkv
General
Complete name : H:\Zheleznij.rytzar.2011.D.BDRip.720p.mkv
Format : Matroska
File size : 6.87 GiB
Duration : 2h 0mn
Overall bit rate : 8 142 Kbps
Movie name : Ironclad.2011.Bluray.720p.DTS.x264-DON
Encoded date : UTC 2011-08-08 14:58:42
Writing application : mkvmerge v3.4.0 ('Rapunzel') сборка от May 15 2010 09:38:20
Writing library : libebml v0.8.0 + libmatroska v0.9.0
Video #1
ID : 1
Format : AVC
Format/Info : Advanced Video Codec
Format profile : High@L4.1
Format settings, CABAC : Yes
Format settings, ReFrames : 8 frames
Muxing mode : Container profile=Unknown@4.1
Codec ID : V_MPEG4/ISO/AVC
Duration : 2h 0mn
Bit rate : 6 956 Kbps
Nominal bit rate : 7 120 Kbps
Width : 1 280 pixels
Height : 720 pixels
Display aspect ratio : 16:9
Frame rate : 23.976 fps
Resolution : 24 bits
Colorimetry : 4:2:0
Scan type : Progressive
Bits/(Pixel*Frame) : 0.315
Stream size : 5.87 GiB (85%)
Title : Ironclad.2011.Bluray.720p.DTS.x264-DON
Writing library : x264 core 84 r1400M 20fa784
Encoding settings : cabac=1 / ref=8 / deblock=1:-3:-3 / analyse=0x3:0x113 / me=umh / subme=9 / psy=1 / psy_rd=1.0:0.0 / mixed_ref=1 / me_range=32 / chroma_me=1 / trellis=1 / 8x8dct=1 / cqm=0 / deadzone=21,11 / fast_pskip=0 / chroma_qp_offset=-2 / threads=12 / sliced_threads=0 / nr=0 / decimate=0 / mbaff=0 / constrained_intra=0 / bframes=6 / b_pyramid=2 / b_adapt=1 / b_bias=0 / direct=1 / wpredb=1 / wpredp=2 / keyint=250 / keyint_min=25 / scenecut=40 / intra_refresh=0 / rc_lookahead=40 / rc=2pass / mbtree=1 / bitrate=7120 / ratetol=1.0 / qcomp=0.60 / qpmin=10 / qpmax=51 / qpstep=4 / cplxblur=20.0 / qblur=0.5 / ip_ratio=1.40 / aq=1:0.90 / pulldown=0 / nal_hrd=0
Language : English
Audio #2
ID : 2
Format : AC-3
Format/Info : Audio Coding 3
Codec ID : A_AC3
Duration : 2h 0mn
Bit rate mode : Constant
Bit rate : 384 Kbps
Channel(s) : 6 channels
Channel positions : Front: L C R, Surround: L R, LFE
Sampling rate : 48.0 KHz
Stream size : 332 MiB (5%)
Title : DD 5.1 384 kbs
Language : Russian
Audio #3
ID : 3
Format : AC-3
Format/Info : Audio Coding 3
Codec ID : A_AC3
Duration : 2h 0mn
Bit rate mode : Constant
Bit rate : 640 Kbps
Channel(s) : 6 channels
Channel positions : Front: L C R, Surround: L R, LFE
Sampling rate : 48.0 KHz
Video delay : 1s 0ms
Stream size : 553 MiB (8%)
Title : DD 5.1 640 kbs
Language : English
Text #4
ID : 4
Format : UTF-8
Codec ID : S_TEXT/UTF8
Codec ID/Info : UTF-8 Plain Text
Title : Full
Language : English
Свернуть


Изображение


Знаете ли Вы, что...
  • Замок Рочестер расположен в одноимённом городе в графстве Кент. Это один из первых каменных замков в Англии и самый высокий из них. Рочестер прикрывает путь к Лондону с юга и, наряду с Виндзорoм и Беркампстэдом, является одним из укреплённых узлов на дальних подступах к Лондону.
  • На ранней стадии разработки проекта за ним была закреплена Меган Фокс. Позднее её заменила Кейт Мара.
  • Одну из ролей в фильме должен был сыграть 86-летний на тот момент патриарх британского кино Ричард Эттенборо, который вынужден был отказаться от этого по состоянию здоровья.
  • Из-за отсутствия необходимой финансовой поддержки в 2009 году бюджет фильма был существенно урезан. Это привело к практически полной замене всех уже подписавшихся на участие в проекте актёров второго плана.
  • Для съёмок фильма на территории студии Dragon International Film в Уэльсе была создана максимально приближённая к реальности копия замка Рочестер.
  • «Железный рыцарь» стал самым крупным и масштабным независимым проектом, когда-либо снимавшимся в Уэльсе.
Свернуть
Скриншоты

Изображение
Изображение
Изображение
Изображение
Свернуть

_________________
Себе ты можешь не качать, но раздавать другим обязан!
Не в сети
Профиль  
 Добавлено: 2011-08-08 20:50 (спустя 51 минута)
Аватара пользователя
Стаж: 9 лет
Сообщений: 545
Спасибок: 339
1080p когда?
_________________
Smack - Вместе нам не быть (Mixtape vol. 3) [2013]
Smack - Нарисую (Mixtape vol. 2) [2011]
Не в сети
Профиль  
 Добавлено: 2011-08-08 20:53 (спустя 2 минуты)
Аватара пользователя
Стаж: 8 лет 3 месяца
Возраст: 43
Сообщений: 3290
Спасибок: 21012
Лайков: 3
Smack_07-PM
уже :)
viewtopic.php?f=1750&t=420139
_________________
Изображение
Не в сети
Профиль  
 Добавлено: 2011-08-11 21:09 (спустя 3 дня)
Аватара пользователя
Стаж: 8 лет 3 месяца
Сообщений: 4560
Спасибок: 681
Хороший фильм
Не в сети
Профиль  
 Добавлено: 2012-01-07 23:44 (спустя 4 месяца 27 дней)
Аватара пользователя
Стаж: 7 лет 9 месяцев
Сообщений: 187
Лайков: 9
Встаньте на раздачу я уже почти скачал и скорость пропала!!!
Не в сети
Профиль  
 Добавлено: 2012-01-08 18:34 (спустя 18 часов)
Аватара пользователя
Стаж: 4 года 11 месяцев
Сообщений: 67
фильм отличный!! хозяйка замка весь фильм домогалась рыцаря :-D
Не в сети
Профиль  
Начать новую темуОтветить на тему  [ Сообщений: 6 ] 
Вы не можете начинать темы
Вы не можете отвечать на сообщения
Вы не можете редактировать свои сообщения
Вы не можете удалять свои сообщения